img image001 image001 image001 image001 image001 image001 image001 image001 image001 image001 image001 image001 image001 image001 image001

Planets Sun Sun Sun
Статистика раздачи
Автор: Nickolas3434 | Размер: 41.5 МБ | Добавлен: 07 июн 2015
Раздают: 38    Качают: 5
Скачать торрент
Скачать торрент
Описание торрента

СообщениеДобавлено: 07 июн 2015 


Год выпуска: 2015
Производство: США
Жанр: фантастика
Перевод: Дублированный
Режиссер: Ник Харран
Продюсеры: Майкл Де Лука, Акива Голдсман, Мэтью Грэхэм
Актеры: Jacob Holt, Хейли Магнус, Колм Мини, Эшли Цукерман, Simone Oula, Lachlan, Roland-Kenn, Дэйзи Беттс, Корум Эллис, Ози Икхайл, Kumar Ishri
Описание фильма:
Сериал расскажет о мирном вторжении пришельцев на Землю: прибытие инопланетных гостей привело к немедленному прекращению войн и превратило планету практически в утопию.
Дата мировой премьеры: -
Дата российской премьеры: -

Продолжительность: 00:02:00
Качество видео: WEBRip
Видеокодек: MPEG-4 AVC/H.264
Битрейт видео: 2754 Кбит/сек
Размер кадра: 1920x800
Аудиокодек: AC3 2.0
Битрейт аудио: 126 Кбит/сек
Общее
Полное имя : Конец детства (1 сезон) Русский Трейлер (2015).mp4
Формат : MPEG-4
Профиль формата : Base Media
Идентификатор кодека : isom
Размер файла : 41,5 Мбайт
Продолжительность : 2 м. 0 с.
Общий поток : 2886 Кбит/сек
Программа кодирования : Lavf56.19.100
Видео
Идентификатор : 1
Формат : AVC
Формат/Информация : Advanced Video Codec
Профиль формата : High@L4
Параметр CABAC формата : Да
Параметр ReFrames формата : 2 кадра
Идентификатор кодека : avc1
Идентификатор кодека/Информация : Advanced Video Coding
Продолжительность : 2 м. 0 с.
Битрейт : 2754 Кбит/сек
Ширина : 1920 пикселей
Высота : 1080 пикселей
Соотношение сторон : 16:9
Режим частоты кадров : Постоянный
Частота кадров : 30,000 кадров/сек
Цветовое пространство : YUV
Субдискретизация насыщенности : 4:2:0
Битовая глубина : 8 бит
Тип развёртки : Прогрессивная
Бит/(Пиксели*Кадры) : 0.044
Размер потока : 39,6 Мбайт (95%)
Аудио
Идентификатор : 2
Формат : AAC
Формат/Информация : Advanced Audio Codec
Профиль формата : LC
Идентификатор кодека : 40
Продолжительность : 2 м. 0 с.
Вид битрейта : Постоянный
Битрейт : 126 Кбит/сек
Каналы : 2 канала
Расположение каналов : Front: L R
Частота : 44,1 КГц
Метод сжатия : С потерями
Размер потока : 1,81 Мбайт (4%)

Скриншоты








   Похожие торренты   Торрент   Размер 
В этой теме нет новых непрочитанных сообщений. Конец детства / Childhood's End [S01] (2015) WEB-DL 1080p | Lostfilm, NewStudio

345 | 26

10.93 ГБ

В этой теме нет новых непрочитанных сообщений. Конец детства / Childhood's End [01х01 из 06] (2015) WEB-DL 1080p | BaibaKo

150 | 132

5.29 ГБ

В этой теме нет новых непрочитанных сообщений. Конец детства / Childhood's End [S01] (2015) WEBDL 1080p | NewStudio

70 | 30

10.02 ГБ

В этой теме нет новых непрочитанных сообщений. Конец детства / Childhood's End [01х01 из 03] (2015) WEB-DL 1080p от qqss44 | NewStudio

89 | 6

3.43 ГБ

В этой теме нет новых непрочитанных сообщений. Конец детства / Childhood's End [S01] (2015) WEB-DL 720p | IdeaFilm

18 | 6

8.29 ГБ

В этой теме нет новых непрочитанных сообщений. Конец детства / Childhood's End [S01] (2015) WEB-DL 720p | BaibaKo

105 | 24

8.34 ГБ

В этой теме нет новых непрочитанных сообщений. Конец детства / Childhood's End [S01] (2015) WEB-DL 720p | Jaskier

86 | 28

8.22 ГБ




Вы не можете начинать темы
Вы не можете отвечать на сообщения
Вы не можете редактировать свои сообщения
Вы не можете удалять свои сообщения
Вы не можете добавлять вложения

Перейти:  
Для Мосгорсуда, Роскомнадзора и рекламодателей: mosgorsud-torrent[собачка]yandex.ru
 Вход
ppkBB3cker v.2 © 2008-2014 @ PPK
[ Time : 0.058s | 15 Queries | GZIP : Off ]

cron