img image001 image001 image001 image001 image001 image001 image001 image001 image001 image001 image001 image001 image001 image001 image001

Planets Sun Sun Sun
Статистика раздачи
Автор: Nickolas3434 | Размер: 39.53 ГБ | Добавлен: 13 июн 2015
Раздают: 316    Качают: 280
Скачать торрент
Скачать торрент
Описание торрента

СообщениеДобавлено: 13 июн 2015 


Название: Прослушка
Оригинальное название: The Wire
Год выпуска: 2002-2008
Жанр: Триллер, драма, криминал, детектив
Режиссер: Джо Чаппелль, Клемент Вирго, Роб Бэйли
В ролях: Доминик Уэст, Джон Доумен, Дирдри Лавджой, Уэнделл Пирс, Лэнс Реддик, Соня Сон, Сет Гиллиам, Доменик Ломбардоззи, Кларк Питерс, Андре Ройо, Майкл К. Уильямс, Джим Тру-Фрост, Фрэнки Фэйзон, Кори Паркер Робинсон, Делани Уильямс, Дж.Д. Уильямс, Вуд Харрис, Идрис Эльба, Эйден Гиллен, Джэми Гектор, Гбенга Акиннагбе, Роберт Уиздом, Чад Коулмэн, Анван Гловер, Майкл Кострофф, Трей Чейни, Исайя Уитлок мл., Майкл Салкони, Фелиция Пирсон, Роберт Ф. Чю
Описание: Самый популярный в америке сериал про полицейских. Сериал повествует о полицейских расследованиях в Балтиморе. Именно этот сериал, любимый сериал полицейских и гангстеров помог правоохранительным органам разгромить сеть наркоторговцев. Полицейские источники сообщили, что лидеры преступной группировки вели себя в точности как герои телесериала, в частности, постоянно меняли мобильные телефоны, затрудняя прослушивание. В ходе подготовки операции полицейские широко применяли прослушивание телефонных разговоров гангстеров. В результате были арестованы 12 человек, изъяты 43 кг кокаина, 500.000 долларов наличными, 18 единиц оружия и пять дорогостоящих автомобилей. Бандиты, оказавшиеся большими поклонниками "Прослушки", помимо обсуждения своих дел по телефону, говорили и о сюжете очередной серии. Полицейские, прослушивавшие их, тоже любили этот фильм. Если мы пропускали какой-то эпизод, то всегда могли узнать подробности из их бесед, – сообщили стражи порядка Криминальная драма, написана, снята и спродюсирована в Балтиморе бывшим полицейским репортером Дэвидом Саймоном.
Выпущено: США, Blown Deadline Productions, Home Box Office (HBO)
Продолжительность: 60 x ~ 00:58:00
Перевод: Профессиональный многоголосый [Fox Crime]
Качество: WEB-DLRip
Видео: XviD build 73, ~ 1500 Кбит/с, 720x400
Аудио rus: MP3, 2 ch, 128 Кбит/с
Полное имя : D:The.Wire5\09.The.Wire.tahiy.avi
Формат : AVI
Формат/Информация : Audio Video Interleave
Размер файла : 679 Мбайт
Продолжительность : 59 м.
Общий поток : 1584 Кбит/сек
Название фильма : The.Wire.tahiy
Программа кодирования : VirtualDubMod 1.5.10.3 | www.virtualdub-fr.org || (build 2550/release)
Видео
Идентификатор : 0
Формат : MPEG-4 Visual
Профиль формата : Advanced Simple@L5
Параметр BVOP формата : 1
Параметр QPel формата : Нет
Параметр GMC формата : Без точки перехода
Параметр матрицы формата : Default (MPEG)
Идентификатор кодека : XVID
Идентификатор кодека/Подсказка : XviD
Продолжительность : 59 м.
Битрейт : 1447 Кбит/сек
Ширина : 720 пикселей
Высота : 400 пикселей
Соотношение сторон : 16:9
Частота кадров : 23,976 кадра/сек
Цветовое пространство : YUV
Субдискретизация насыщенности : 4:2:0
Битовая глубина : 8 бит
Тип развёртки : Прогрессивная
Метод сжатия : С потерями
Бит/(Пиксели*Кадры) : 0.210
Размер потока : 620 Мбайт (91%)
Библиотека кодирования : XviD 73
Аудио
Идентификатор : 1
Формат : MPEG Audio
Версия формата : Version 1
Профиль формата : Layer 3
Режим : Joint stereo
Идентификатор кодека : 55
Идентификатор кодека/Подсказка : MP3
Продолжительность : 59 м.
Вид битрейта : Постоянный
Битрейт : 128 Кбит/сек
Каналы : 2 канала
Частота : 48,0 КГц
Метод сжатия : С потерями
Размер потока : 54,8 Мбайт (8%)
Выравнивание : Соединение по промежуткам
Продолжительность промежутка : 42 мс. (1,00 видеокадр)
Время предзагрузки промежутка : 504 мс.
Библиотека кодирования : LAME3.99r
Настройки программы : -m j -V 4 -q 2 -lowpass 17 -b 128





   Похожие торренты   Торрент   Размер 
В этой теме нет новых непрочитанных сообщений. Прослушка / The Wire [01-05x01-25 из 60] (2002-2008) WEB-DLRip

10 | 15

16.22 ГБ

В этой теме нет новых непрочитанных сообщений. Прослушка / The Wire [S01-05] (2002-2008) DVDRip | P

95 | 82

41.9 ГБ

В этой теме нет новых непрочитанных сообщений. Прослушка / The Wire [S01-05] (2002–2008) WEB-DL 720p | Р, 4хА

20 | 134

127.81 ГБ

В этой теме нет новых непрочитанных сообщений. Прослушка / The Wire [S01-S05] (2002-2008) DVDRip | КПК

14 | 13

11.02 ГБ

В этой теме нет новых непрочитанных сообщений. Прослушка / The Wire [S01-05] (2002–2008) BDRip 720p от GYN | Fox Crime

27 | 41

177.51 ГБ

В этой теме нет новых непрочитанных сообщений. Прослушка / The Wire [S01] (2002) WEB-DLRip от Scarabey | А + Р

462 | 92

12.67 ГБ

В этой теме нет новых непрочитанных сообщений. Прослушка / The Wire [S05] (2008) WEB-DLRip от Scarabey | Fox Crime

105 | 24

8.26 ГБ




Вы не можете начинать темы
Вы не можете отвечать на сообщения
Вы не можете редактировать свои сообщения
Вы не можете удалять свои сообщения
Вы не можете добавлять вложения

Перейти:  
Для Мосгорсуда, Роскомнадзора и рекламодателей: mosgorsud-torrent[собачка]yandex.ru
 Вход
ppkBB3cker v.2 © 2008-2014 @ PPK
[ Time : 0.057s | 15 Queries | GZIP : Off ]

Торрент трекер RUTOR.IN, Не можете зайти на rutor.org? Какой новый адрес рутор? Какое зеркало рутор? Не работает rutor.org и зеркала? Тогда наш торрент специально для вас. Rutor.in неофициальное зеркало rutor. В случае если у Вас заблокирован rutor или вдруг Вы не можете на него зайти, то Вы без труда сможете скачать бесплатно и без рекламы последние новинки кино, игр, сериалов и прочего у нас, на Rutor.in. Не нужно использовать прокси, чтобы зайти на рутор, достаточно воспользоваться нашим ресурсом. Все новые фильмы, игры, сериалы, книги и музыка за 2013 и 2014 годы через торрент бесплатно. Скачивайте фильмы в хорошем качестве, игры для пк, xbox, playstation без регистрации. У нас вы найдете новые Зарубежные сериалы и Русские сериалы 2013, 2014, 2015 годов. Оставайтесь с нами, качайте любимые фильмы, игры, сериалы, книги и музыку.