img image001 image001 image001 image001 image001 image001 image001 image001 image001 image001 image001 image001 image001 image001 image001 image001

Planets Sun Sun Sun
Статистика раздачи
Автор: Nickolas3434 | Размер: 252.59 МБ | Добавлен: 13 июн 2015
Раздают: 294    Качают: 14
Скачать торрент
Скачать торрент
Описание торрента

СообщениеДобавлено: 13 июн 2015 


Информация о фильме
Название: Найтвинг: Сериал / Ночное Крыло (мини-сериал)
Оригинальное название: Nightwing: The Series
Год выхода: 2014
Жанр: боевик
Режиссер: Адам Зилински
В ролях: Danny Shepherd, Lenna Karacostas, Lance Brazil, Scott Kinworthy, Noel Schefflin, Bob Lee Dysinger
О фильме:
После похорон Брюса Уэйна, опекуна и наставника ДикГрейсон занимает его место. Теперь на улицах города перерожденный герой Ночное Крыло,первый Робин, помощник легендарного Бетмена. Он вполне самодостаточен и самостоятельно борется со злом. Он не нуждается в посторенней помощи и даже помощь Бетмена он не примет.Но не все гладко было у героя,статус Ночного Крыла не прибавил ему сверхспособностей, он не сильно отличался от своего учителя Бетмена, разве что совсем немного ему в чем то уступал, хотя практически всему научился у Тёмного Рыцаря. Да он чуток быстрее наставника, гибче, акробатичнее, эластичнее, он в состоянии сам постоять за себя и защитить других. Даже сам Бетмен иногда нуждался в помощи напарника, не говоря уже о Тимоти Дрейке и Барбаре Гордон, которых Дик неоднократно спасал.

Страна: США
Студия: Ishmahawk
Продолжительность: 1-2 x ~ 00:07:40
Перевод: Любительский многоголосый (закадровый) [ТО NewRecords]
Файл
Кодек: h.264 / mp3
Качество: WEB-Rip 1080р
Видео: 1920x1080 (16:9), 1915 Kbps, 23.976 fps
Звук: Русский (mp3, 44.1 KHz, 2 ch, 320 kbps)
Семпл

1. Nightwing The Series - Episode 1: Deathstroke
2. Nightwing The Series - Episode 2: Origins

Когда раздача ведётся путём добавления новых серий, при каждом добавлении создётся новый торрент. Чтобы начать докачку новой серии, пользователям необходимо сделать следующее:
остановить скачивание,
удалить старый торрент у себя из клиента (старые серии удалять не надо),
скачать новый торрент и запустить его у себя в клиенте вместо старого, при этом указать клиенту путь в старую папку, куда и должно происходить скачивание новых серий.
Ваш клиент при этом должен произвести хеширование (проверку) старой папки (если не производит сам - помогите ему сделать это), и будет докачивать только те серии, которых у вас ещё нет. Старые серии при этом не удаляются, а продолжают раздаваться!
Eсли вы уже удалили старые серии, то предотвратить повторную закачку старых серий можно, отжав галочку в соответсвующих местах при запуске нового торрента. По возможности, желательно не удалять старые серии как можно дольше, чтобы релизёр не столько продолжал раздавать старые серии, а смог сконцентрироваться на новых.

General
Unique ID : 198762293836118903164046144157687900105 (0x958839B0A13DB613950C7B9687E267C9)
Complete name : G:NewRecordsNightwingNightwing_1475_The_Series_-_Episode_1_Deathstroke.mkv
Format : Matroska
Format version : Version 2
File size : 138 MiB
Duration : 8mn 26s
Overall bit rate : 2 281 Kbps
Encoded date : UTC 2015-05-19 16:06:49
Writing application : mkvmerge v4.2.0 ('No Talking') сборка от Jul 28 2010 18:38:23
Writing library : libebml v1.0.0 + libmatroska v1.0.0
Video
ID : 1
Format : AVC
Format/Info : Advanced Video Codec
Format profile : High@L4
Format settings, CABAC : Yes
Format settings, ReFrames : 3 frames
Muxing mode : Header stripping
Codec ID : V_MPEG4/ISO/AVC
Duration : 8mn 26s
Bit rate : 1 915 Kbps
Width : 1 920 pixels
Height : 1 080 pixels
Display aspect ratio : 16:9
Frame rate mode : Constant
Frame rate : 23.976 fps
Color space : YUV
Chroma subsampling : 4:2:0
Bit depth : 8 bits
Scan type : Progressive
Bits/(Pixel*Frame) : 0.039
Stream size : 116 MiB (84%)
Default : Yes
Forced : No
Audio
ID : 2
Format : MPEG Audio
Format version : Version 1
Format profile : Layer 3
Muxing mode : Header stripping
Codec ID : A_MPEG/L3
Codec ID/Hint : MP3
Duration : 8mn 26s
Bit rate mode : Constant
Bit rate : 320 Kbps
Channel(s) : 2 channels
Sampling rate : 44.1 KHz
Compression mode : Lossy
Stream size : 19.3 MiB (14%)
Default : Yes
Forced : No

Релиз от: TO NewRecords



   Похожие торренты   Торрент   Размер 
В этой теме нет новых непрочитанных сообщений. Ночное Крыло / Nightwing: The Series [s01] (2014) WEB-Rip | L

249 | 32

415.23 МБ

В этой теме нет новых непрочитанных сообщений. Ночное Крыло / Nightwing: The Series [s01] (2014) WEBRip | L

40 | 4

607.16 МБ

В этой теме нет новых непрочитанных сообщений. Ночное предупреждение / Night Warning (1982) BDRemux 1080р | A

1 | 0

18.53 ГБ

В этой теме нет новых непрочитанных сообщений. Стражи Галактики: Истоки / Marvel's Guardians of the Galaxy: Origins [01x01-09] (2015) WEB-DLRip 720p | NewRecords

233 | 19

2.71 ГБ

В этой теме нет новых непрочитанных сообщений. Стражи Галактики: Истоки / Marvel's Guardians of the Galaxy: Origins [01x01-08] (2015) WEB-DLRip 720p | NewRecords

143 | 9

2.38 ГБ

В этой теме нет новых непрочитанных сообщений. От заката до рассвета / From Dusk Till Dawn: The Series [01x01-05 из 10] (2014) WEB-DLRip | NewStudio

233 | 345

2.69 ГБ

В этой теме нет новых непрочитанных сообщений. От заката до рассвета / From Dusk Till Dawn: The Series [01x01-07 из 10] (2014) WEB-DLRip | LostFilm

74 | 38

4.09 ГБ




Вы не можете начинать темы
Вы не можете отвечать на сообщения
Вы не можете редактировать свои сообщения
Вы не можете удалять свои сообщения
Вы не можете добавлять вложения

Перейти:  
 Вход
ppkBB3cker v.2 © 2008-2014 @ PPK
[ Time : 0.028s | 15 Queries | GZIP : Off ]

cron