img image001 image001 image001 image001 image001 image001 image001 image001 image001 image001 image001 image001 image001 image001 image001

Planets Sun Sun Sun
Статистика раздачи
Автор: Nickolas3434 | Размер: 2.36 ГБ | Добавлен: 13 июн 2015
Раздают: 157    Качают: 126
Скачать торрент
Скачать торрент
Описание торрента

СообщениеДобавлено: 13 июн 2015 


Информация о фильме
Название: Ганнибал
Оригинальное название: Hannibal
Год выхода: 2015
Жанр: Детектив, драма, криминал, триллер
Режиссер: Гильермо Наварро, Майкл Раймер, Дэвид Слэйд
В ролях: Мадс Миккельсен, Хью Дэнси, Каролин Давернас, Джиллиан Андерсон, Лоренс Фишбёрн и другие
О фильме:
Сериал «Ганнибал» основан на истории одного из самых загадочных и скандальных героев книг Томаса Харриса – доктора Ганнибала Лектера. Этот стилизованный триллер рассказывает о развитии взаимоотношений Лектера и сотрудника ФБР Уилла Грэма, двух гениальных личностей: игры разумов добра и зла, мощи ментального воздействия против уникального таланта эмпатии. Уилл Грэм — одаренный профайлер, который вместе с ФБР разыскивает серийного убийцу. Уникальный способ мышления Грэма дает ему удивительную способность глубоко проникаться чувствами другого человека, даже психопата. Он может понять, что ими движет. Но когда ум преследуемого убийцы оказывается слишком сложным, он прибегает к помощи доктора Лектера, одного из ведущих психиатрических умов в стране. Кинематографичные съемки и неординарная фантазия создателей позволили любителям жанра по достоинству оценить сериал. Первые два сезона вошли в многочисленные Top-10 по всему миру: лучшие сериалы, лучшие ТВ-шоу, лучший актерский состав и др., транслировались на телеканалах в 80 странах, на 18 языках мира, их посмотрели несколько десятков миллионов зрителей

Страна: США
Продолжительность: 00:42:00
Перевод: Профессиональный (многоголосый закадровый) студия Jaskier
Озвучено при поддержке сообщества When I wake up.
Перевод: MartinaG (1 серия), Алексей Матвеев
Роли озвучивали: Денис Строев, Сергей Пономарёв, Андрей Мишутин, Рустам Шайхиев, Наталья Казначеева, Таисия Тришина
Файл
Кодек: H.264
Качество: WEB-DL 720p
Видео: AVC, 1280x718 (16:9), 23.976 fps, ~3900kbps, ~0.181 bit/pixel, 2 серия: AVC, 1280x720 (16:9), 23.976 fps, ~3900kbps, ~0.097 bit/pixel
Звук:
Аудио 1 (русская дорожка): Dolby AC3 48000Hz 5.1 384Kbps (во всех сериях)
Аудио 2 (оригинал): Dolby AC3 48000Hz 5.1 384Kbps (во всех сериях)
Семпл




General
Unique ID : 231009434770087820055090617804024747943 (0xADCACC7D3CB9EED0A5373CADB93497A7)
Complete name : V:HDHannibal. 3 season (WEB-DL l 720p l Jaskier)Hannibal.S03E02.720p.HDTVRip.AC3.H.264-Jaskier.mkv
Format : Matroska
Format version : Version 1
File size : 919 MiB
Duration : 43mn 9s
Overall bit rate : 2 976 Kbps
Encoded date : UTC 2015-06-12 20:29:51
Writing application : mkvmerge v2.3.0 ('Freak U') built on Sep 8 2008 18:32:16
Writing library : libebml v0.7.7 + libmatroska v0.8.1
Video
ID : 1
Format : AVC
Format/Info : Advanced Video Codec
Format profile : High@L4.1
Format settings, CABAC : Yes
Format settings, ReFrames : 8 frames
Codec ID : V_MPEG4/ISO/AVC
Duration : 43mn 9s
Bit rate : 2 149 Kbps
Width : 1 280 pixels
Height : 720 pixels
Display aspect ratio : 16:9
Frame rate mode : Constant
Frame rate : 23.976 fps
Color space : YUV
Chroma subsampling : 4:2:0
Bit depth : 8 bits
Scan type : Progressive
Bits/(Pixel*Frame) : 0.097
Stream size : 663 MiB (72%)
Writing library : x264 core 146 r2538 121396c
Encoding settings : cabac=1 / ref=8 / deblock=1:0:0 / analyse=0x3:0x133 / me=umh / subme=9 / psy=1 / psy_rd=1.00:0.00 / mixed_ref=1 / me_range=16 / chroma_me=1 / trellis=2 / 8x8dct=1 / cqm=0 / deadzone=21,11 / fast_pskip=1 / chroma_qp_offset=-2 / threads=18 / lookahead_threads=1 / sliced_threads=0 / nr=0 / decimate=1 / interlaced=0 / bluray_compat=0 / constrained_intra=0 / bframes=3 / b_pyramid=2 / b_adapt=2 / b_bias=0 / direct=3 / weightb=1 / open_gop=0 / weightp=2 / keyint=250 / keyint_min=23 / scenecut=40 / intra_refresh=0 / rc_lookahead=60 / rc=crf / mbtree=1 / crf=18.0 / qcomp=0.60 / qpmin=0 / qpmax=69 / qpstep=4 / ip_ratio=1.40 / aq=1:1.00
Language : English
Default : Yes
Forced : No
Matrix coefficients : BT.709
Audio #1
ID : 2
Format : AC-3
Format/Info : Audio Coding 3
Mode extension : CM (complete main)
Format settings, Endianness : Big
Codec ID : A_AC3
Duration : 43mn 9s
Bit rate mode : Constant
Bit rate : 384 Kbps
Channel(s) : 6 channels
Channel positions : Front: L C R, Side: L R, LFE
Sampling rate : 48.0 KHz
Bit depth : 16 bits
Compression mode : Lossy
Stream size : 119 MiB (13%)
Title : Jaskier
Language : Russian
Default : Yes
Forced : No
Audio #2
ID : 3
Format : AC-3
Format/Info : Audio Coding 3
Mode extension : CM (complete main)
Format settings, Endianness : Big
Codec ID : A_AC3
Duration : 43mn 9s
Bit rate mode : Constant
Bit rate : 384 Kbps
Channel(s) : 6 channels
Channel positions : Front: L C R, Side: L R, LFE
Sampling rate : 48.0 KHz
Bit depth : 16 bits
Compression mode : Lossy
Stream size : 119 MiB (13%)
Title : Original
Language : English
Default : No
Forced : No



   Похожие торренты   Торрент   Размер 
В этой теме нет новых непрочитанных сообщений. Ганнибал / Hannibal [03x01-12 из 13] (2015) WEB-DL 720p | Jaskier

35 | 83

16.69 ГБ

В этой теме нет новых непрочитанных сообщений. Ганнибал / Hannibal [03x01-06 из 13] (2015) WEB-DL 720p | Jaskier

27 | 92

8.69 ГБ

В этой теме нет новых непрочитанных сообщений. Ганнибал / Hannibal [03x01-04 из 13] (2015) WEB-DL 720p | Jaskier

51 | 158

5.74 ГБ

В этой теме нет новых непрочитанных сообщений. Ганнибал / Hannibal [03x01-07 из 13] (2015) WEB-DL 720p | Jaskier

114 | 333

9.45 ГБ

В этой теме нет новых непрочитанных сообщений. Ганнибал / Hannibal [03x01-03 из 13] (2015) WEB-DL 720p | Jaskier

75 | 133

4.33 ГБ

В этой теме нет новых непрочитанных сообщений. Ганнибал / Hannibal [03x01-05 из 13] (2015) WEB-DL 720p | Jaskier

106 | 261

6.56 ГБ

В этой теме нет новых непрочитанных сообщений. Ганнибал / Hannibal [03x01-08 из 13] (2015) WEB-DL 720p | Jaskier

109 | 450

10.98 ГБ




Вы не можете начинать темы
Вы не можете отвечать на сообщения
Вы не можете редактировать свои сообщения
Вы не можете удалять свои сообщения
Вы не можете добавлять вложения

Перейти:  
Для Мосгорсуда, Роскомнадзора и рекламодателей: mosgorsud-torrent[собачка]yandex.ru
 Вход
ppkBB3cker v.2 © 2008-2014 @ PPK
[ Time : 0.052s | 15 Queries | GZIP : Off ]

cron