img image001 image001 image001 image001 image001 image001 image001 image001 image001 image001 image001 image001 image001 image001 image001

Planets Sun Sun Sun
Статистика раздачи
Автор: Nickolas3434 | Размер: 4.4 ГБ | Добавлен: 17 июн 2015
Раздают: 76    Качают: 27
Скачать торрент
Скачать торрент
Описание торрента

СообщениеДобавлено: 17 июн 2015 


Информация о фильме
Оригинальное название: Раскол
Год выхода: 2011
Жанр: Исторический фильм, фильм-фреска
Режиссер: Николай Досталь
В ролях: Дмитрий Тихонов, Юлия Назаренко, Валерий Гришко, Александр Коротков, Дарья Екамасова, Юлия Мельникова, Александр Баширов, Роман Мадянов, Ольга Аксенова, Ольга Антропова, Михаил Асанкин, Александр Соколовский, Александр Коршунов, Валерия Буданкова, Роман Жирнов, Роман Ярославцев, Георгий Караяннидис, Яннис Караяннидис, Владимир Устюгов, Артём Кобзев, Георгий Корольчук, Вадим Мадянов, Виктор Маркин, Павел Меленчук, Владимир Мельников, Алексей Морозов, Тагир Рахимов, Игорь Яцко, Игорь Григорьев, Владислав Ветров, Елена Новикова, Наталья Омельченко, Александра Черкасова, Тамара Самсонова, Александр Обласов, Евгения Казарина, Виталий Кищенко, Владимир Яворский, Илья Козин
О фильме:
В фильме "Раскол" запечатлен тяжелейший и малоизвестный период российской истории. История раскола русской Православной церкви в XVII веке. О судьбах исторических лиц - царя Алексея Михайловича и его сына Федора Алексеевича, братьев Морозовых, боярыни Феодосии Морозовой, о церковных реформах патриарха Никона и ярых противниках этих реформ во главе с протопопом Аввакумом.

Страна: Россия
Студия: Кинокомпания Аврора
Продолжительность: 20 х ~ 00:50:00
Перевод: Не требуется
Файл
Формат: MP4
Качество: DVDRip | КПК
Видео: MPEG-4 AVC (x264), 640x360, ~500 kbps, 25.000 fps
Аудио: AAC LC, 44.1 KHz, 2 ch, 128 Kbps
Субтитры: Нет
Семпл

Complete name : E:KinoRaskol.2011.AVC.DVDRip.KPK.GeneralfilmRaskol.2011.19.seriya.iz.20.AVC.DVDRip.KPK.Generalfilm.mp4
Format : MPEG-4
Codec ID : M4V
File size : 229 MiB
Duration : 50mn 30s
Overall bit rate mode : Variable
Overall bit rate : 633 Kbps
Writing application : Lavf53.19.0
Video
ID : 1
Format : AVC
Format/Info : Advanced Video Codec
Format profile : High@L4.1
Format settings, CABAC : Yes
Format settings, ReFrames : 8 frames
Codec ID : avc1
Codec ID/Info : Advanced Video Coding
Duration : 50mn 30s
Bit rate : 500 Kbps
Width : 640 pixels
Height : 360 pixels
Display aspect ratio : 16:9
Frame rate mode : Constant
Frame rate : 25.000 fps
Color space : YUV
Chroma subsampling : 4:2:0
Bit depth : 8 bits
Scan type : Progressive
Bits/(Pixel*Frame) : 0.087
Stream size : 181 MiB (79%)
Writing library : x264 core 130 r2273 b3065e6
Encoding settings : cabac=1 / ref=8 / deblock=1:-1:-1 / analyse=0x3:0x133 / me=umh / subme=10 / psy=1 / psy_rd=1.00:0.00 / mixed_ref=1 / me_range=24 / chroma_me=1 / trellis=2 / 8x8dct=1 / cqm=0 / deadzone=21,11 / fast_pskip=1 / chroma_qp_offset=-2 / threads=3 / lookahead_threads=1 / sliced_threads=0 / nr=0 / decimate=1 / interlaced=0 / bluray_compat=0 / constrained_intra=0 / bframes=8 / b_pyramid=2 / b_adapt=2 / b_bias=0 / direct=3 / weightb=1 / open_gop=0 / weightp=2 / keyint=250 / keyint_min=126 / scenecut=40 / intra_refresh=0 / rc_lookahead=40 / rc=2pass / mbtree=1 / bitrate=500 / ratetol=1.0 / qcomp=0.60 / qpmin=0 / qpmax=69 / qpstep=4 / cplxblur=20.0 / qblur=0.5 / ip_ratio=1.40 / aq=1:1.00
Audio
ID : 2
Format : AAC
Format/Info : Advanced Audio Codec
Format profile : LC
Codec ID : 40
Duration : 50mn 30s
Bit rate mode : Variable
Bit rate : 128 Kbps
Channel(s) : 2 channels
Channel positions : Front: L R
Sampling rate : 48.0 KHz
Compression mode : Lossy
Stream size : 46.1 MiB (20%)

Релиз от:



   Похожие торренты   Торрент   Размер 
В этой теме нет новых непрочитанных сообщений. Раскол [01-20 из 20] (2011) DVDRip

37 | 9

16.37 ГБ

В этой теме нет новых непрочитанных сообщений. Раскол [01-20 из 20] (2011) DVDRip-AVC от Youtracker

66 | 15

13.13 ГБ

В этой теме нет новых непрочитанных сообщений. Раскол [01-20 из 20] (2011) SATRip | КПК

14 | 6

4.38 ГБ

В этой теме нет новых непрочитанных сообщений. Раскол [01-20 из 20] (2011) SATRip от КинозалSAT

31 | 16

10.74 ГБ

В этой теме нет новых непрочитанных сообщений. Раскол [01-20 из 20] (2011) WEB-DLRip от Files-х

138 | 59

12.07 ГБ

В этой теме нет новых непрочитанных сообщений. Боярыня Морозова. Раскол (2011) SATRip от KinoZalSat

4 | 3

810.17 МБ

В этой теме нет новых непрочитанных сообщений. Раскол / Partition (2008) DVDRip

7 | 1

1.37 ГБ




Вы не можете начинать темы
Вы не можете отвечать на сообщения
Вы не можете редактировать свои сообщения
Вы не можете удалять свои сообщения
Вы не можете добавлять вложения

Перейти:  
Для Мосгорсуда, Роскомнадзора и рекламодателей: mosgorsud-torrent[собачка]yandex.ru
 Вход
ppkBB3cker v.2 © 2008-2014 @ PPK
[ Time : 0.075s | 18 Queries | GZIP : Off ]
CGP output time : 5.346s | 5 Queries | GZIP : Off

Торрент трекер RUTOR.IN, Не можете зайти на rutor.org? Какой новый адрес рутор? Какое зеркало рутор? Не работает rutor.org и зеркала? Тогда наш торрент специально для вас. Rutor.in неофициальное зеркало rutor. В случае если у Вас заблокирован rutor или вдруг Вы не можете на него зайти, то Вы без труда сможете скачать бесплатно и без рекламы последние новинки кино, игр, сериалов и прочего у нас, на Rutor.in. Не нужно использовать прокси, чтобы зайти на рутор, достаточно воспользоваться нашим ресурсом. Все новые фильмы, игры, сериалы, книги и музыка за 2013 и 2014 годы через торрент бесплатно. Скачивайте фильмы в хорошем качестве, игры для пк, xbox, playstation без регистрации. У нас вы найдете новые Зарубежные сериалы и Русские сериалы 2013, 2014, 2015 годов. Оставайтесь с нами, качайте любимые фильмы, игры, сериалы, книги и музыку.