img image001 image001 image001 image001 image001 image001 image001 image001 image001 image001 image001 image001 image001 image001 image001

Planets Sun Sun Sun
Статистика раздачи
Автор: Nickolas3434 | Размер: 8.17 ГБ | Добавлен: 19 июн 2015
Раздают: 161    Качают: 30
Скачать торрент
Скачать торрент
Описание торрента

СообщениеДобавлено: 19 июн 2015 


Информация о фильме
Название: Оставленные
Оригинальное название: The Leftovers
Год выхода: 2014
Жанр: Фэнтези, драма, детектив
Режиссер: Мими Ледер, Питер Берг, Мишель Максвелл МакЛарен
В ролях: Джастин Теру, Эми Бреннеман, Кристофер Экклстон, Лив Тайлер, Крис Зилка, Маргарет Куэлли, Кэрри Кун, Эмили Миде, Аманда Уоррен, Энн Дауд, Майкл Гэстон, Макс Карвер, Марселин Хьюго, Пэтерсон Джозеф, Скотт Гленн, Уэйн Дювалл, Том Нунен, Энни Цянь, Фрэнк Хартс, Дэн Флаэрти
О фильме:
Разве может внезапно испариться сотня человек? Кажется фантастикой и каким-то безумием, но это факт. Более сотни жителей небольшого городка под названием Мейплтон неожиданно просто исчезают, оставляя всё своё имущество и вещи. Странно, загадочно и пугающе. Однако остатки населения городка должны продолжать жить дальше, хотя сделать это очень непросто. Кто знает, не постигнет ли такая же участь кого-то ещё и куда же всё-таки делись все эти люди. Пока полиция пытается дать хоть какие-то ответы на случившееся, остатки жителей постепенно приходят в себя, стараясь смириться с произошедшим, но забыть такое они точно не смогут.

Страна: США
Студия: Warner Bros. Television
Продолжительность: 10 x ~ 00:58:00
Перевод: Профессиональный (многоголосый, закадровый) [SDI Media]
Файл
Формат: AVI
Качество: HDTVRip
Видео: XviD, 720x400, ~1800 kbps, 23.976 fps
Аудио: AC3, 48.0 KHz, 6 ch, 192 Kbps
Субтитры: Нет
Видеоряд чистый - без рекламы и логотипа телеканала.
Семпл

Complete name : E:KinoOstavlennye.XviD.GeneralfilmOstavlennye.S01.2014.XviD.HDTVRip.KPK.Amedia.GeneralfilmOstavlennye.s01e02.2014.XviD.HDTVRip.KPK.Amedia.Generalfilm.avi
Format : AVI
Format/Info : Audio Video Interleave
File size : 828 MiB
Duration : 57mn 44s
Overall bit rate : 2 004 Kbps
Writing application : VirtualDubMod 1.5.10.3 | www.virtualdub-fr.org || (build 2550/release)
Writing library : VirtualDubMod build 2550/release
Video
ID : 0
Format : MPEG-4 Visual
Format profile : Advanced Simple@L5
Format settings, BVOP : 2
Format settings, QPel : No
Format settings, GMC : No warppoints
Format settings, Matrix : Default (H.263)
Codec ID : XVID
Codec ID/Hint : XviD
Duration : 57mn 44s
Bit rate : 1 802 Kbps
Width : 720 pixels
Height : 400 pixels
Display aspect ratio : 16:9
Frame rate : 23.976 fps
Color space : YUV
Chroma subsampling : 4:2:0
Bit depth : 8 bits
Scan type : Progressive
Compression mode : Lossy
Bits/(Pixel*Frame) : 0.261
Stream size : 744 MiB (90%)
Writing library : XviD 1.2.1 (UTC 2008-12-04)
Audio
ID : 1
Format : AC-3
Format/Info : Audio Coding 3
Mode extension : CM (complete main)
Format settings, Endianness : Big
Codec ID : 2000
Duration : 57mn 44s
Bit rate mode : Constant
Bit rate : 192 Kbps
Channel(s) : 6 channels
Channel positions : Front: L C R, Side: L R, LFE
Sampling rate : 48.0 KHz
Compression mode : Lossy
Stream size : 79.3 MiB (10%)
Alignment : Split accross interleaves
Interleave, duration : 42 ms (1.00 video frame)
Interleave, preload duratio : 500 ms

Релиз от:



   Похожие торренты   Торрент   Размер 
В этой теме нет новых непрочитанных сообщений. Оставленные / The Leftovers [S01] (2014) HDTVRip от Generalfilm | КПК | SDI Media

110 | 13

2.55 ГБ

В этой теме нет новых непрочитанных сообщений. Оставленные. Фильм о сериале / Making The Leftovers (2014) HDTVRip от Generalfilm

45 | 5

350.56 МБ

В этой теме нет новых непрочитанных сообщений. Оставленные / Остатки / The Leftovers [01х01-06 из 10] (2014) HDTVRip | NewStudio

61 | 60

4.2 ГБ

В этой теме нет новых непрочитанных сообщений. Оставленные / Остатки / The Leftovers [01х01-02 из 10] (2014) HDTVRip | NewStudio

44 | 41

1.47 ГБ

В этой теме нет новых непрочитанных сообщений. Оставленные / Остатки / The Leftovers [01х01-04 из 10] (2014) HDTVRip | NewStudio

48 | 94

2.83 ГБ

В этой теме нет новых непрочитанных сообщений. Оставленные / Остатки / The Leftovers [01х01-03 из 10] (2014) HDTVRip | NewStudio

47 | 86

2.15 ГБ

В этой теме нет новых непрочитанных сообщений. Оставленные / Остатки / The Leftovers [S01] (2014) HDTVRip от Scarabey | Amedia

179 | 43

7.93 ГБ




Вы не можете начинать темы
Вы не можете отвечать на сообщения
Вы не можете редактировать свои сообщения
Вы не можете удалять свои сообщения
Вы не можете добавлять вложения

Перейти:  
Для Мосгорсуда, Роскомнадзора и рекламодателей: mosgorsud-torrent[собачка]yandex.ru
 Вход
ppkBB3cker v.2 © 2008-2014 @ PPK
[ Time : 0.063s | 16 Queries | GZIP : On ]

Торрент трекер RUTOR.IN, Не можете зайти на rutor.org? Какой новый адрес рутор? Какое зеркало рутор? Не работает rutor.org и зеркала? Тогда наш торрент специально для вас. Rutor.in неофициальное зеркало rutor. В случае если у Вас заблокирован rutor или вдруг Вы не можете на него зайти, то Вы без труда сможете скачать бесплатно и без рекламы последние новинки кино, игр, сериалов и прочего у нас, на Rutor.in. Не нужно использовать прокси, чтобы зайти на рутор, достаточно воспользоваться нашим ресурсом. Все новые фильмы, игры, сериалы, книги и музыка за 2013 и 2014 годы через торрент бесплатно. Скачивайте фильмы в хорошем качестве, игры для пк, xbox, playstation без регистрации. У нас вы найдете новые Зарубежные сериалы и Русские сериалы 2013, 2014, 2015 годов. Оставайтесь с нами, качайте любимые фильмы, игры, сериалы, книги и музыку.
cron