img image001 image001 image001 image001 image001 image001 image001 image001 image001 image001 image001 image001 image001 image001 image001

Planets Sun Sun Sun
Статистика раздачи
Автор: Nickolas3434 | Размер: 13.79 ГБ | Добавлен: 03 июл 2015
Раздают: 295    Качают: 232
Скачать торрент
Скачать торрент
Описание торрента

СообщениеДобавлено: 03 июл 2015 

Название: Меч
Год выпуска: 2009
Жанр: Боевик, драма, криминал
Выпущено: Россия / DIXI-TV
Режиссер: Рустам Уразаев, Виктор Конисевич
В ролях: Эдуард Флёров, Роман Курцын, Тимур Ефременков, Дарья Повереннова, Виктория Фишер, Александр Баринов, Нина Гогаева, Владислав Павлов, Александр Фисенко, Шухрат Иргашев, Сергей Фишер, Дмитрий Миронов, Геннадий Подшивалов, Наталья Коновалова, Игорь Карлов, Дмитрий Антимонов, Александр Горохов (II), Александр Воробьёв (II), Анастасия Тюфякина, Дмитрий Родионов (II), Никита Новиков, Яна Белугина, Александр Зельский, Дмитрий Белогуров, Илья Кремнев, Сергей Холмогоров, Марина Налетова, Павел Фалов, Ольга Жилова, Дмитрий Ефремов, Магомед Аваданский, Ангелина Ноздрина, Сергей Болотаев, Адам Булгучев, Григорий Меликбекян, Дмитрий Чибизов, Сергей Колокольцев
Описание:
Наши дни. Москва. Растущий мегаполис выходит из-под контроля милиции. Уровень преступности растет в геометрической прогрессии. Макс Калинин бывший офицер разведки ВДВ, оперативник УБОП. По фиктивному обвинению его увольняют со службы. На деле Макс просто не согласился отпустить преступника, за которого кто-то из его руководства получил большую взятку. Калинин принимает непростое решение, он будет бороться с беззаконием своими методами. Макс собирает маленькую команду единомышленников. Команда разрастается и постепенно превращается в опасную и жестокую карательную организацию, которой боятся все. Они выбирают своим знаком меч, так же их называют и журналисты. На улицах города разворачивается настоящая война. «Меч» находится между двух зол — криминального мира, который объявляет огромные деньги за их «головы» и своих бывших коллег, которые начинают охоту на «оборотней».

Качество: DVDRip-AVC
Видео: MPEG-4 AVC, ~1400 Кбит/с, 720x400, 25.000 кадр/с
Аудио:AC3, 2 ch, 192 Кбит/с
Продолжительность: 25 x ~ 00:48:00
01. Приговор
02. Нас будут бояться
03. Готовься к войне
04. Высший закон
05. Первый удар
06. Охота
07. В ловушке
08. Террор
09. Пленных не брать
10. Месть
11. Найти любой ценой
12. Гидра
13. Маскарад
14. Единственный выход
15. Прятки
16. Ловкач
17. Дуэль
18. На дороге
19. Бой
20. Война
21. Переворот
22. Манифест
23. Суд
24. Нокдаун
25. Победа или смерть
General
Unique ID : 263154949562576747179466087837275336979 (0xC5F9CCBB9AED55FE9D936F9C9EB93113)
Complete name : F:СериалыМеч [25] (2009) DVDRip-AVCMech.(14.seriya.iz.25).2009.DVDRIP_AVC.[-=DoMiNo=-].mkv
Format : Matroska
Format version : Version 4 / Version 2
File size : 564 MiB
Duration : 47mn 51s
Overall bit rate : 1 647 Kbps
Writing application : Lavf56.1.100
Writing library : Lavf56.1.100
ENCODING_INFO : MATROSKA,WEBM > MKV / MPEG2 > X264 CRF 18,0 Custom / AC3 > COPY
Video
ID : 1
Format : AVC
Format/Info : Advanced Video Codec
Format profile : High@L4.1
Format settings, CABAC : Yes
Format settings, ReFrames : 12 frames
Codec ID : V_MPEG4/ISO/AVC
Duration : 47mn 51s
Bit rate : 1 422 Kbps
Width : 720 pixels
Height : 400 pixels
Display aspect ratio : 16:9
Frame rate mode : Constant
Frame rate : 25.000 fps
Color space : YUV
Chroma subsampling : 4:2:0
Bit depth : 8 bits
Scan type : Progressive
Bits/(Pixel*Frame) : 0.198
Stream size : 487 MiB (86%)
Default : Yes
Forced : No
Audio
ID : 2
Format : AC-3
Format/Info : Audio Coding 3
Mode extension : CM (complete main)
Format settings, Endianness : Big
Codec ID : A_AC3
Duration : 47mn 51s
Bit rate mode : Constant
Bit rate : 192 Kbps
Channel(s) : 2 channels
Channel positions : Front: L R
Sampling rate : 48.0 KHz
Bit depth : 32 bits
Compression mode : Lossy
Stream size : 65.7 MiB (12%)
Default : Yes
Forced : No







   Похожие торренты   Торрент   Размер 
В этой теме нет новых непрочитанных сообщений. Мисс Вселенная 2009 / Miss Universe (2009) DVDRip by GENADIY

3 | 1

1.37 ГБ

В этой теме нет новых непрочитанных сообщений. Slipknot - Live in Rock Am Ring 2009 (2009) DVDRip

24 | 10

2.06 ГБ

В этой теме нет новых непрочитанных сообщений. Самая смешная реклама 2009 года / The Funniest Commercials Of The Year 2009 (2009) TVRip

59 | 9

352.48 МБ

В этой теме нет новых непрочитанных сообщений. Евровидение 2009 (финал) / Еurovision 2009 (final) (Голосование включено!) (2009) SATRip

317 | 2

1.56 ГБ

В этой теме нет новых непрочитанных сообщений. КВН 2009. Высшая лига. Первая 1/2 финала (эфир 2009.10.25) (2009) SATRip - fanatus

0 | 2

1.35 ГБ

В этой теме нет новых непрочитанных сообщений. Где-то там / Elsewhere (2009) DVDRip

1 | 4

701.22 МБ

В этой теме нет новых непрочитанных сообщений. Я (2009) DVDRip

66 | 5

1.46 ГБ




Вы не можете начинать темы
Вы не можете отвечать на сообщения
Вы не можете редактировать свои сообщения
Вы не можете удалять свои сообщения
Вы не можете добавлять вложения

Перейти:  
Для Мосгорсуда, Роскомнадзора и рекламодателей: mosgorsud-torrent[собачка]yandex.ru
 Вход
ppkBB3cker v.2 © 2008-2014 @ PPK
[ Time : 0.040s | 15 Queries | GZIP : Off ]

Торрент трекер RUTOR.IN, Не можете зайти на rutor.org? Какой новый адрес рутор? Какое зеркало рутор? Не работает rutor.org и зеркала? Тогда наш торрент специально для вас. Rutor.in неофициальное зеркало rutor. В случае если у Вас заблокирован rutor или вдруг Вы не можете на него зайти, то Вы без труда сможете скачать бесплатно и без рекламы последние новинки кино, игр, сериалов и прочего у нас, на Rutor.in. Не нужно использовать прокси, чтобы зайти на рутор, достаточно воспользоваться нашим ресурсом. Все новые фильмы, игры, сериалы, книги и музыка за 2013 и 2014 годы через торрент бесплатно. Скачивайте фильмы в хорошем качестве, игры для пк, xbox, playstation без регистрации. У нас вы найдете новые Зарубежные сериалы и Русские сериалы 2013, 2014, 2015 годов. Оставайтесь с нами, качайте любимые фильмы, игры, сериалы, книги и музыку.