img image001 image001 image001 image001 image001 image001 image001 image001 image001 image001 image001 image001 image001 image001 image001

Planets Sun Sun Sun
Статистика раздачи
Автор: Nickolas3434 | Размер: 7.81 ГБ | Добавлен: 06 июл 2015
Раздают: 224    Качают: 136
Скачать торрент
Скачать торрент
Описание торрента

СообщениеДобавлено: 06 июл 2015 


Информация о фильме
Название: Я - Зомби
Оригинальное название: iZombie
Год выхода: 2015
Жанр: Ужасы, фантастика, драма, криминал
Режиссер: Эйчиро Хасуми
В ролях: Роуз МакИвер, Малкольм Гудвин, Рахул Коли, Молли Хэйгэн, Ник Пурча, Элиз Гэтьен, Мэттью МакКоулл, Роб Карпентер и др.
О фильме:
После вечеринки на яхте Оливия Мур, будущий кардиохирург, жизнерадостная, активная и пышущая здоровьем девушка, становится зомби. Теперь Лив похожа на представителя готов: бледная кожа, тёмные круги вокруг глаз и почти белые волосы. Она устраивается на работу в морг, стажёром доктора Рави Чакрабарти, чтобы иметь доступ к мозгам, которые ей приходиться есть для поддержания человеческой сущности. Однако с каждым съеденным мозгом Лив получает воспоминания трупа. С помощью доктора Чакрабарти, узнавшего её секрет, и детектива полиции Клайва Бабино Лив начинает раскрывать убийства тех людей, чей мозг съела.

01. Пилот
02. Brother, Can You Spare a Brain / Прибереги мозг, братец
03. The Exterminator / Истребитель
04. Liv and Let Clive / Живи и дай жить другим
05. Flight of the Living Dead / Рейс живых мертвецов
06. Virtual Reality Bites / Виртуально-реальные укусы
07. Maternity Liv / Мамочка Лив
08. Dead Air / Мёртвый эфир
09. Patriot Brains / Мозги патриота
10. Mr. Berserk / Мистер Берсерк
11. Astroburger / Астробургер
12. Dead Rat, Live Rat, Brown Rat, White Rat / Мёртвая крыса, живая крыса, коричневая крыса, белая крыса
13. Blaine's World / Мир Блэйна

Страна: США
Студия: CW
Продолжительность: 13 x ~00:43:00
Перевод: Профессиональный (многоголосый, закадровый) [NewStudio]
Файл
Формат: AVI
Качество: WEB-DLRip
Видео: XviD, 720x400, ~1800 kbps, 23.976 fps
Аудио: AC3, 48.0 KHz, 6 ch, 192 Kbps
Субтитры: Нет
Семпл

Complete name : E:KinoYa.Zombi.XviD.GeneralfilmYa.Zombi.S01.2015.XviD.NS.GeneralfilmYa.Zombi.s01e13.2015.XviD.NS.Generalfilm.avi
Format : AVI
Format/Info : Audio Video Interleave
File size : 610 MiB
Duration : 42mn 33s
Overall bit rate : 2 003 Kbps
Writing application : VirtualDubMod 1.5.10.3 | www.virtualdub-fr.org || (build 2550/release)
Writing library : VirtualDubMod build 2550/release
Video
ID : 0
Format : MPEG-4 Visual
Format profile : Advanced Simple@L5
Format settings, BVOP : 2
Format settings, QPel : Yes
Format settings, GMC : 3 warppoints
Format settings, Matrix : Default (H.263)
Codec ID : XVID
Codec ID/Hint : XviD
Duration : 42mn 33s
Bit rate : 1 802 Kbps
Width : 720 pixels
Height : 400 pixels
Display aspect ratio : 16:9
Frame rate : 23.976 fps
Color space : YUV
Chroma subsampling : 4:2:0
Bit depth : 8 bits
Scan type : Progressive
Compression mode : Lossy
Bits/(Pixel*Frame) : 0.261
Stream size : 548 MiB (90%)
Writing library : XviD 1.2.1 (UTC 2008-12-04)
Audio
ID : 1
Format : AC-3
Format/Info : Audio Coding 3
Mode extension : CM (complete main)
Format settings, Endianness : Big
Codec ID : 2000
Duration : 42mn 33s
Bit rate mode : Constant
Bit rate : 192 Kbps
Channel(s) : 6 channels
Channel positions : Front: L C R, Side: L R, LFE
Sampling rate : 48.0 KHz
Compression mode : Lossy
Stream size : 58.4 MiB (10%)
Alignment : Split accross interleaves
Interleave, duration : 42 ms (1.00 video frame)
Interleave, preload duratio : 500 ms

Релиз от:



   Похожие торренты   Торрент   Размер 
В этой теме нет новых непрочитанных сообщений. Я - зомби / iZombie [s01] (2015) WEB-DLRip от Generalfilm | КПК | NewStudio

168 | 25

2.44 ГБ

В этой теме нет новых непрочитанных сообщений. Я - зомби / iZombie [s01] (2015) WEB-DLRip от Generalfilm | КПК | NewStudio

79 | 27

2.44 ГБ

В этой теме нет новых непрочитанных сообщений. Я - зомби / iZombie [S01-02] (2015-2016) WEB-DLRip от Generalfilm | КПК | NewStudio

70 | 23

6 ГБ

В этой теме нет новых непрочитанных сообщений. Я - зомби / iZombie [02х01-06 из 13] (2015) WEB-DLRip | КПК | NewStudio

31 | 80

1.13 ГБ

В этой теме нет новых непрочитанных сообщений. Я - зомби / iZombie [01х01 из 13] (2015) WEB-DLRip | NewStudio

190 | 11

549.31 МБ

В этой теме нет новых непрочитанных сообщений. Я - зомби / iZombie [02х01-05 из 13] (2015) WEB-DLRip | КПК | NewStudio

11 | 19

967.52 МБ

В этой теме нет новых непрочитанных сообщений. Я - зомби / iZombie [02х01 из 13] (2015) WEB-DLRip | NewStudio

273 | 16

549.96 МБ




Вы не можете начинать темы
Вы не можете отвечать на сообщения
Вы не можете редактировать свои сообщения
Вы не можете удалять свои сообщения
Вы не можете добавлять вложения

Перейти:  
Для Мосгорсуда, Роскомнадзора и рекламодателей: mosgorsud-torrent[собачка]yandex.ru
 Вход
ppkBB3cker v.2 © 2008-2014 @ PPK
[ Time : 0.034s | 14 Queries | GZIP : Off ]
CGP output time : 0.146s | 5 Queries | GZIP : Off

Торрент трекер RUTOR.IN, Не можете зайти на rutor.org? Какой новый адрес рутор? Какое зеркало рутор? Не работает rutor.org и зеркала? Тогда наш торрент специально для вас. Rutor.in неофициальное зеркало rutor. В случае если у Вас заблокирован rutor или вдруг Вы не можете на него зайти, то Вы без труда сможете скачать бесплатно и без рекламы последние новинки кино, игр, сериалов и прочего у нас, на Rutor.in. Не нужно использовать прокси, чтобы зайти на рутор, достаточно воспользоваться нашим ресурсом. Все новые фильмы, игры, сериалы, книги и музыка за 2013 и 2014 годы через торрент бесплатно. Скачивайте фильмы в хорошем качестве, игры для пк, xbox, playstation без регистрации. У нас вы найдете новые Зарубежные сериалы и Русские сериалы 2013, 2014, 2015 годов. Оставайтесь с нами, качайте любимые фильмы, игры, сериалы, книги и музыку.