img image001 image001 image001 image001 image001 image001 image001 image001 image001 image001 image001 image001 image001 image001 image001

Planets Sun Sun Sun
Статистика раздачи
Автор: Nickolas3434 | Размер: 17.14 ГБ | Добавлен: 05 июл 2015
Раздают: 106    Качают: 63
Скачать торрент
Скачать торрент
Описание торрента

СообщениеДобавлено: 05 июл 2015 

Информация о сериале
Название: Джонатан Стрендж и мистер Норрелл
Оригинальное название: Jonathan Strange & Mr Norrell
Год выхода: 2015
Жанр: фэнтези, история
Автор идеи: Питер Харнесс /Peter Harness/
Режиссер: Тоби Хэйнс /Toby Haynes/
В ролях: Берти Карвел /Bertie Carvel/, Эдди Марсан /Eddie Marsan/, Марк Уоррен /Marc Warren/, Шарлотта Райли /Charlotte Riley/, Элис Энглерт /Alice Englert/, Сэмюэл Уэст /Samuel West/, Энцо Чиленти /Enzo Cilenti/, Пол Кэй /Paul Kaye/, Эдвард Хогг /Edward Hogg/, Эрион Бакаре /Ariyon Bakare/ и др.
О сериале:
История начинается в альтернативной Англии XIX века в период Наполеоновских войн. Английская магия, когда-то утраченная возвращается благодаря консервативному Гильберту Норреллу и дерзкому новичку Джонатану Стренджу. Мистер Норрелл воскрешает невесту высокопоставленного правительственного чиновника, заключив для этого сделку с потусторонними силами, тем самым запустив череду непредсказуемых и трагических событий.

Страна: Великобритания
Студии: Cuba Pictures / Feel Films / BBC America и др.
Продолжительность: 7 x ~ 01:00:00
Перевод: Профессиональный (многоголосый, закадровый) - AlexFilm
Релиз от:
Перевод: Константин Кривоногов
Монтаж и сведение звука: Михаил Шорыгин
Роли озвучивали:
Евгения Тихонова
Роман Сопко
Михаил Суслов
Владимир Курдов
Константин Погодаев
Файл
Кодек: H.264
Качество: BDRip 720p
Видео: 1280x720 at 25.000 fps, x264@L4.1, 2pass, ~4600 kbps avg
Аудио#1: Russian: 48 kHz, AC3, 2/0 (L,R) ch, ~640.00 kbps avg |Многоголосый закадровый, AlexFilm|
Аудио#2: English: 48 kHz, AC3, 2/0 (L,R) ch, ~640.00 kbps avg |Оригинал|
Субтитры: none

General
Complete name : Jonathan.Strange.and.Mr.Norrell.s01e01.BDRip.720p.Rus.Eng.AlexFilm.mkv
Format : Matroska
Format version : Version 4 / Version 2
File size : 2.45 GiB
Duration : 59mn 5s
Overall bit rate : 5 934 Kbps
Movie name : Jonathan Strange and Mr.Norrell 1x01 Job @ AlexFilm
Encoded date : UTC 2015-07-03 11:56:29
Writing application : mkvmerge v7.1.0 ('Good Love') 64bit built on Jul 27 2014 13:06:55
Writing library : libebml v1.3.0 + libmatroska v1.4.1
DURATION : 00:59:03.424000000
NUMBER_OF_FRAMES : 110732
NUMBER_OF_BYTES : 283473920
_STATISTICS_WRITING_APP : mkvmerge v7.7.0 ('Six Voices') 32bit built on Feb 28 2015 23:23:00
_STATISTICS_WRITING_DATE_UTC : 2015-06-29 11:58:58
_STATISTICS_TAGS : BPS DURATION NUMBER_OF_FRAMES NUMBER_OF_BYTES
Video
ID : 1
Format : AVC
Format/Info : Advanced Video Codec
Format profile : High@L4.1
Format settings, CABAC : Yes
Format settings, ReFrames : 5 frames
Codec ID : V_MPEG4/ISO/AVC
Duration : 59mn 5s
Bit rate : 4 652 Kbps
Width : 1 280 pixels
Height : 720 pixels
Display aspect ratio : 16:9
Frame rate mode : Constant
Frame rate : 25.000 fps
Color space : YUV
Chroma subsampling : 4:2:0
Bit depth : 8 bits
Scan type : Progressive
Bits/(Pixel*Frame) : 0.202
Stream size : 1.87 GiB (76%)
Writing library : x264 core 146 r2538 121396c
Encoding settings : cabac=1 / ref=5 / deblock=1:0:0 / analyse=0x3:0x133 / me=umh / subme=7 / psy=1 / psy_rd=1.00:0.00 / mixed_ref=1 / me_range=16 / chroma_me=1 / trellis=1 / 8x8dct=1 / cqm=0 / deadzone=21,11 / fast_pskip=0 / chroma_qp_offset=-2 / threads=12 / lookahead_threads=2 / sliced_threads=0 / nr=0 / decimate=1 / interlaced=0 / bluray_compat=0 / constrained_intra=0 / bframes=3 / b_pyramid=2 / b_adapt=2 / b_bias=0 / direct=3 / weightb=1 / open_gop=0 / weightp=2 / keyint=250 / keyint_min=25 / scenecut=40 / intra_refresh=0 / rc_lookahead=50 / rc=2pass / mbtree=1 / bitrate=4652 / ratetol=1.0 / qcomp=0.60 / qpmin=0 / qpmax=69 / qpstep=4 / cplxblur=20.0 / qblur=0.5 / ip_ratio=1.40 / aq=1:1.00
Language : English
Default : Yes
Forced : No
DURATION : 00:59:05.400000000
NUMBER_OF_FRAMES : 88635
NUMBER_OF_BYTES : 2061788373
_STATISTICS_WRITING_APP : mkvmerge v7.7.0 ('Six Voices') 32bit built on Feb 28 2015 23:23:00
_STATISTICS_WRITING_DATE_UTC : 2015-06-29 11:58:58
_STATISTICS_TAGS : BPS DURATION NUMBER_OF_FRAMES NUMBER_OF_BYTES
Audio #1
ID : 2
Format : AC-3
Format/Info : Audio Coding 3
Mode extension : CM (complete main)
Format settings, Endianness : Big
Codec ID : A_AC3
Duration : 59mn 5s
Bit rate mode : Constant
Bit rate : 640 Kbps
Channel(s) : 2 channels
Channel positions : Front: L R
Sampling rate : 48.0 KHz
Compression mode : Lossy
Stream size : 270 MiB (11%)
Title : DD2.0 AlexFilm
Language : Russian
Default : Yes
Forced : No
Audio #2
ID : 3
Format : AC-3
Format/Info : Audio Coding 3
Mode extension : CM (complete main)
Format settings, Endianness : Big
Codec ID : A_AC3
Duration : 59mn 5s
Bit rate mode : Constant
Bit rate : 640 Kbps
Channel(s) : 2 channels
Channel positions : Front: L R
Sampling rate : 48.0 KHz
Compression mode : Lossy
Stream size : 270 MiB (11%)
Title : DD2.0 Original
Language : English
Default : No
Forced : No
Menu
00:00:00.000 : en:00:00:00.000
00:01:44.040 : en:00:01:44.040
00:14:27.400 : en:00:14:27.400
00:28:20.640 : en:00:28:20.640
00:46:00.200 : en:00:46:00.200
00:58:31.160 : en:00:58:31.160
01. Chapter One: The Friends of English Magic / Друзья английской магии
02. Chapter Two: How Is Lady Pole? / Как поживает леди Поул?
03. Chapter Three: The Education of a Magician / Обучение волшебника
04. Chapter Four: All the Mirrors of the World / Все зеркала на свете
05. Chapter Five: Arabella / Арабелла
06. Chapter Six: The Black Tower / Чёрная башня
07. Chapter Seven: Jonathan Strange & Mr Norrell / Джонатан Стрендж и мистер Норрелл
ЦитатаКто-то писал:
[*] Сохранены оригинальные главы как на Blu-ray.



   Похожие торренты   Торрент   Размер 
В этой теме нет новых непрочитанных сообщений. Джонатан Стрендж и мистер Норрелл / Jonathan Strange and Mr Norrell [01х01-06 из 07] (2015) HDTVRip 720p | AlexFilm

74 | 68

9.44 ГБ

В этой теме нет новых непрочитанных сообщений. Джонатан Стрендж и мистер Норрелл / Jonathan Strange And Mr Norrell [01х01-06 из 07] (2015) HDTVRip | AlexFilm

245 | 269

4.11 ГБ

В этой теме нет новых непрочитанных сообщений. Джонатан Стрендж и мистер Норрелл / Jonathan Strange & Mr Norrell [S01] (2015) BluRay 1080p | AlexFilm

93 | 54

31.64 ГБ

В этой теме нет новых непрочитанных сообщений. Джонатан Стрендж и мистер Норрелл / Jonathan Strange And Mr Norrell [01x01-05 из 07] (2015) BDRip 720p от qqss44 | LostFilm

21 | 34

10.4 ГБ

В этой теме нет новых непрочитанных сообщений. Джонатан Стрендж и мистер Норрелл / Jonathan Strange and Mr Norrell [S01] (2015) HDTVRip 720p | ViruseProject

24 | 7

9.21 ГБ

В этой теме нет новых непрочитанных сообщений. Джонатан Стрендж и мистер Норрелл /Jonathan Strange And Mr Norrell [S01] (2015) HDTVRip 720p | BaibaKo

128 | 114

10.5 ГБ

В этой теме нет новых непрочитанных сообщений. Джонатан Стрендж и мистер Норрелл /Jonathan Strange And Mr Norrell [S01] (2015) HDTVRip 720p | BaibaKo

48 | 230

10.5 ГБ




Вы не можете начинать темы
Вы не можете отвечать на сообщения
Вы не можете редактировать свои сообщения
Вы не можете удалять свои сообщения
Вы не можете добавлять вложения

Перейти:  
Для Мосгорсуда, Роскомнадзора и рекламодателей: mosgorsud-torrent[собачка]yandex.ru
 Вход
ppkBB3cker v.2 © 2008-2014 @ PPK
[ Time : 0.060s | 16 Queries | GZIP : Off ]

cron