img image001 image001 image001 image001 image001 image001 image001 image001 image001 image001 image001 image001 image001 image001 image001

Planets Sun Sun Sun
Статистика раздачи
Автор: Nickolas3434 | Размер: 11.28 ГБ | Добавлен: 12 июл 2015
Раздают: 35    Качают: 160
Скачать торрент
Скачать торрент
Описание торрента

СообщениеДобавлено: 12 июл 2015 


Информация о фильме
Название: Уэйворд Пайнс
Оригинальное название: Wayward Pines
Год выхода: 2015
Жанр: драма, триллер, фантастика
Режиссер: Зал Батманглидж, Тим Хантер, Нимрод Антал
В ролях: Мэтт Диллон, Карла Гуджино, Тоби Джонс, Шаннин Соссамон, Рид Даймонд, Тим Гриффин, Чарли Тахэн, Джульетт Льюис, Мелисса Лео, Терренс Ховард
О фильме:
Агент секретной службы отправляется в местечко Уэйворд Пайнс в Айдахо, чтобы разыскать двух федеральных агентов, которые пропали в этом городе. Но вскоре он выясняет, что выбраться из Уэйворд Пайнс живым практически невозможно.

Страна: США
Продолжительность: 00:42:00
Перевод: Профессиональный (многоголосый закадровый) студия Jaskier
Перевод: MartinaG
Роли озвучивали: Сергей Пономарёв, Андрей Мишутин, Денис Строев, Рустам Шайхиев, Наталья Казначеева, Таисия Тришина
Файл
Кодек: H.264
Качество: WEB-DL, WEBRip (8 серия) - временно
Видео: AVC, 1280x720 (16:9), 23.976 fps, ~3900 kbps, ~0.177 bit/pixel, 8 серия: AVC, 1280x720 (16:9), 23.976 fps, ~2500 kbps, ~0.114 bit/pixel
Звук:
Аудио 1 (русская дорожка): Dolby AC3 48000Hz 6ch 384Kbps, 8 серия: Dolby AC3 48000Hz stereo 192Kbps
Аудио 2 (оригинал): Dolby AC3 48000Hz 6ch 384Kbps, 8 серия: Dolby AC3 48000Hz stereo 192Kbps
Семпл


General
Unique ID : 179045447453216505643297344387668684836 (0x86B2E61C0EEE8ED99ADB8AF4E4BEB024)
Complete name : V:HDWayward Pines (WEB-DL l 720p l Jaskier)Wayward.Pines.S01E08.720p.WEBRip.DD2.0.H.264-Jaskier.mkv
Format : Matroska
Format version : Version 1
File size : 851 MiB
Duration : 42mn 2s
Overall bit rate mode : Constant
Overall bit rate : 2 831 Kbps
Encoded date : UTC 2015-07-08 08:50:33
Writing application : mkvmerge v2.3.0 ('Freak U') built on Sep 8 2008 18:32:16
Writing library : libebml v0.7.7 + libmatroska v0.8.1
Video
ID : 1
Format : AVC
Format/Info : Advanced Video Codec
Format profile : Main@L3.1
Format settings, CABAC : Yes
Format settings, ReFrames : 4 frames
Format settings, GOP : M=1, N=48
Codec ID : V_MPEG4/ISO/AVC
Duration : 42mn 2s
Bit rate mode : Constant
Bit rate : 2 500 Kbps
Width : 1 280 pixels
Height : 720 pixels
Display aspect ratio : 16:9
Frame rate mode : Variable
Frame rate : 23.810 fps
Original frame rate : 23.976 fps
Color space : YUV
Chroma subsampling : 4:2:0
Bit depth : 8 bits
Scan type : Progressive
Bits/(Pixel*Frame) : 0.114
Stream size : 719 MiB (84%)
Default : Yes
Forced : No
Audio #1
ID : 2
Format : AC-3
Format/Info : Audio Coding 3
Mode extension : CM (complete main)
Format settings, Endianness : Big
Codec ID : A_AC3
Duration : 42mn 2s
Bit rate mode : Constant
Bit rate : 192 Kbps
Channel(s) : 2 channels
Channel positions : Front: L R
Sampling rate : 48.0 KHz
Bit depth : 16 bits
Compression mode : Lossy
Delay relative to video : -41ms
Stream size : 57.7 MiB (7%)
Language : Russian
Default : Yes
Forced : No
Audio #2
ID : 3
Format : AC-3
Format/Info : Audio Coding 3
Mode extension : CM (complete main)
Format settings, Endianness : Big
Codec ID : A_AC3
Duration : 42mn 2s
Bit rate mode : Constant
Bit rate : 192 Kbps
Channel(s) : 2 channels
Channel positions : Front: L R
Sampling rate : 48.0 KHz
Bit depth : 16 bits
Compression mode : Lossy
Delay relative to video : -41ms
Stream size : 57.7 MiB (7%)
Default : No
Forced : No



   Похожие торренты   Торрент   Размер 
В этой теме нет новых непрочитанных сообщений. Уэйворд Пайнс / Сосны / Wayward Pines [01x01-03 из 10] (2015) WEB-DL 720p | Jaskier

37 | 47

3.83 ГБ

В этой теме нет новых непрочитанных сообщений. Уэйворд Пайнс / Сосны / Wayward Pines [01x01-04 из 10] (2015) WEB-DL 720p | Jaskier

169 | 212

5.28 ГБ

В этой теме нет новых непрочитанных сообщений. Уэйворд Пайнс / Сосны / Wayward Pines [01x01-05 из 10] (2015) WEB-DL 720p | Jaskier

41 | 181

6.86 ГБ

В этой теме нет новых непрочитанных сообщений. Уэйворд Пайнс / Сосны / Wayward Pines [01x01-07 из 10] (2015) WEB-DL 720p | Jaskier

25 | 24

10.45 ГБ

В этой теме нет новых непрочитанных сообщений. Уэйворд Пайнс / Сосны / Wayward Pines [01x01-02 из 10] (2015) WEB-DL 720p | Jaskier

100 | 66

3.03 ГБ

В этой теме нет новых непрочитанных сообщений. Сосны / Wayward Pines [01x01-08 из 10] (2015) HDTVRip | Jaskier

433 | 215

2.59 ГБ

В этой теме нет новых непрочитанных сообщений. Уэйворд Пайнс / Сосны / Wayward Pines [01x01-04 из 10] (2015) WEB-DLRip | Jaskier

145 | 217

1.23 ГБ




Вы не можете начинать темы
Вы не можете отвечать на сообщения
Вы не можете редактировать свои сообщения
Вы не можете удалять свои сообщения
Вы не можете добавлять вложения

Перейти:  
Для Мосгорсуда, Роскомнадзора и рекламодателей: mosgorsud-torrent[собачка]yandex.ru
 Вход
ppkBB3cker v.2 © 2008-2014 @ PPK
[ Time : 0.075s | 14 Queries | GZIP : Off ]

Торрент трекер RUTOR.IN, Не можете зайти на rutor.org? Какой новый адрес рутор? Какое зеркало рутор? Не работает rutor.org и зеркала? Тогда наш торрент специально для вас. Rutor.in неофициальное зеркало rutor. В случае если у Вас заблокирован rutor или вдруг Вы не можете на него зайти, то Вы без труда сможете скачать бесплатно и без рекламы последние новинки кино, игр, сериалов и прочего у нас, на Rutor.in. Не нужно использовать прокси, чтобы зайти на рутор, достаточно воспользоваться нашим ресурсом. Все новые фильмы, игры, сериалы, книги и музыка за 2013 и 2014 годы через торрент бесплатно. Скачивайте фильмы в хорошем качестве, игры для пк, xbox, playstation без регистрации. У нас вы найдете новые Зарубежные сериалы и Русские сериалы 2013, 2014, 2015 годов. Оставайтесь с нами, качайте любимые фильмы, игры, сериалы, книги и музыку.