img image001 image001 image001 image001 image001 image001 image001 image001 image001 image001 image001 image001 image001 image001 image001

Planets Sun Sun Sun
Статистика раздачи
Автор: Nickolas3434 | Размер: 30.97 ГБ | Добавлен: 11 июл 2015
Раздают: 82    Качают: 85
Скачать торрент
Скачать торрент
Описание торрента

СообщениеДобавлено: 11 июл 2015 

Информация о сериале
Название: Мыслить как преступник
Оригинальное название: Criminal Minds
Годы выхода: 2005-2006
Жанр: драма, криминал, детектив, триллер
Автор идеи: Джефф Дэвис /Jeff Davis/
Режиссеры: Гленн Кершоу /Glenn Kershaw/, Феликс Энрикез Алькала /Félix Enríquez Alcalá/, Эдвард Аллен Бернеро /Edward Allen Bernero/ и др.
В ролях: Мэнди Пэтинкин /Mandy Patinkin/, Томас Гибсон /Thomas Gibson/, Лола Глаудини /Lola Glaudini/, Шемар Мур /Shemar Moore/, Мэттью Грей Гублер /Matthew Gray Gubler/, А.Дж. Кук /A.J. Cook/, Кирстен Вангснесс /Kirsten Vangsness/, Мередит Монро /Meredith Monroe/ и др.
О сериале:
Главные герои сериала - команда лучших следователей ФБР, способных понять и проанализировать ход мыслей самых изощрённых преступников, предугадать их дальнейшие поступки и тем самым предотвратить ужасные преступления. Когда обычные криминалисты заходят в тупик, на помощь им приходят специалисты по поведенческому анализу.
Вместо тщательного изучения улик они пытаются найти и понять мотивы преступления, досконально вникая в каждый шаг преступника и пытаясь мыслить, как он. Работая на месте преступления, эти профессионалы словно расследуют его изнутри, стараясь понять мысли преступника, какими бы тёмными они ни были.

Страна: США, Канада
Студии: Touchstone Television / Paramount Network Television / The Mark Gordon Company
Продолжительность: 22 x ~ 00:43:00
Перевод: Профессиональный (двухголосый, закадровый) - ДТВ
Файл
Кодек: H.264
Качество: WEB-DL 720p
Видео: 1280x720 at 23.976 fps, MPEG-4 AVC, ~4000 kbps avg
Аудио#1: Russian: 48 kHz, AC3, 2/0 (L,R) ch, ~192.00 kbps avg |Двухголосый закадровый, ДТВ|
Аудио#2: English: 48 kHz, AC3, 3/2 (L,C,R,l,r) + LFE ch, ~384.00 kbps avg |Оригинал|
Субтитры: none

General
Complete name : Criminal.Minds.S01E01.Extreme Aggressor.WEB-DL.mkv
Format : Matroska
Format version : Version 2
File size : 1.35 GiB
Duration : 41mn 41s
Overall bit rate : 4 651 Kbps
Encoded date : UTC 2010-08-31 13:49:11
Writing application : mkvmerge v4.2.0 ('No Talking') сборка от Jul 28 2010 18:38:23
Writing library : libebml v1.0.0 + libmatroska v1.0.0
Video
ID : 1
Format : AVC
Format/Info : Advanced Video Codec
Format profile : High@L3.1
Format settings, CABAC : No
Format settings, ReFrames : 2 frames
Muxing mode : Header stripping
Codec ID : V_MPEG4/ISO/AVC
Duration : 41mn 41s
Bit rate : 3 983 Kbps
Width : 1 280 pixels
Height : 720 pixels
Display aspect ratio : 16:9
Frame rate mode : Constant
Frame rate : 23.976 fps
Color space : YUV
Chroma subsampling : 4:2:0
Bit depth : 8 bits
Scan type : Progressive
Bits/(Pixel*Frame) : 0.180
Stream size : 1.16 GiB (86%)
Language : English
Default : Yes
Forced : No
Color range : Limited
Color primaries : BT.709
Transfer characteristics : BT.709
Matrix coefficients : BT.709
Audio #1
ID : 2
Format : AC-3
Format/Info : Audio Coding 3
Mode extension : CM (complete main)
Format settings, Endianness : Big
Muxing mode : Header stripping
Codec ID : A_AC3
Duration : 41mn 41s
Bit rate mode : Constant
Bit rate : 192 Kbps
Channel(s) : 2 channels
Channel positions : Front: L R
Sampling rate : 48.0 KHz
Compression mode : Lossy
Stream size : 57.3 MiB (4%)
Language : Russian
Default : Yes
Forced : No
Audio #2
ID : 3
Format : AC-3
Format/Info : Audio Coding 3
Mode extension : CM (complete main)
Format settings, Endianness : Big
Muxing mode : Header stripping
Codec ID : A_AC3
Duration : 41mn 41s
Bit rate mode : Constant
Bit rate : 384 Kbps
Channel(s) : 6 channels
Channel positions : Front: L C R, Side: L R, LFE
Sampling rate : 48.0 KHz
Compression mode : Lossy
Stream size : 115 MiB (8%)
Language : English
Default : No
Forced : No
01. Extreme Aggressor / Крайняя агрессивность
02. Compulsion / Принуждение
03. Won't Get Fooled Again / Нас не обманешь
04. Plain Sight / Ясный взгляд
05. Broken Mirror / Разбитое зеркало
06. L.D.S.K. / Убийца на расстоянии
07. The Fox / Лиса
08. Natural Born Killer / Прирождённый убийца
09. Derailed / Цена измены
10. The Popular Kids / Популярные дети
11. Blood Hungry / Жажда крови
12. What Fresh Hell? / Ад
13. Poison / Яд
14. Riding the Lightning / Верхом на молнии
15. Unfinished Business / Незаконченное дело
16. The Tribe / Племя
17. A Real Rain / Проливной дождь
18. Somebody's Watching / Когда кто-то наблюдает
19. Machismo / Мачизм
20. Charm and Harm / Обаяние и жестокость
21. Secrets and Lies / Тайны и ложь
22. The Fisher King (Part I) / Король-рыбак: Часть 1



   Похожие торренты   Торрент   Размер 
В этой теме нет новых непрочитанных сообщений. Мыслить как преступник / Criminal Minds [S02] (2006-2007) WEB-DL 720p | ДТВ

73 | 85

32.86 ГБ

В этой теме нет новых непрочитанных сообщений. Мыслить как преступник / Criminal Minds [S1] (2006) DVDRip

350 | 109

8.2 ГБ

В этой теме нет новых непрочитанных сообщений. Мыслить как преступник / Criminal Minds [S01-08] (2005-2012) WEB-DLRip | P

11 | 39

84.51 ГБ

В этой теме нет новых непрочитанных сообщений. Мыслить как преступник / Criminal Minds [S01-09] (2005-2014) WEB-DLRip | P

39 | 424

96.21 ГБ

В этой теме нет новых непрочитанных сообщений. Мыслить как преступник / Criminal Minds [S01-10] (2005-2015) WEB-DLRip | P

140 | 313

107.43 ГБ

В этой теме нет новых непрочитанных сообщений. Мыслить как преступник / Criminal Minds [s02] (2006-2007) HDTVRip, DVDRip

106 | 39

8.79 ГБ

В этой теме нет новых непрочитанных сообщений. Мыслить как преступник / Criminal Minds [S08] (2012) WEB-DL 720p | Fox Crime

0 | 6

32.39 ГБ




Вы не можете начинать темы
Вы не можете отвечать на сообщения
Вы не можете редактировать свои сообщения
Вы не можете удалять свои сообщения
Вы не можете добавлять вложения

Перейти:  
Для Мосгорсуда, Роскомнадзора и рекламодателей: mosgorsud-torrent[собачка]yandex.ru
 Вход
ppkBB3cker v.2 © 2008-2014 @ PPK
[ Time : 0.071s | 16 Queries | GZIP : Off ]

cron