img image001 image001 image001 image001 image001 image001 image001 image001 image001 image001 image001 image001 image001 image001 image001

Planets Sun Sun Sun
Статистика раздачи
Автор: Nickolas3434 | Размер: 607.16 МБ | Добавлен: 12 июл 2015
Раздают: 62    Качают: 4
Скачать торрент
Скачать торрент
Описание торрента

СообщениеДобавлено: 12 июл 2015 

Информация о фильме:
● Название: Ночное Крыло
● Оригинальное название: Nightwing: The Series
● Год выхода: 2014
● Страна: США
● Студия: Ismahawk, MG Studio
● Жанр: Сериал, боевик, комикс
● Режиссер: Адам Зилински
● В ролях: Дэнни Шеперд, Стефен Мэнли, Майкл Тайло, Деана Деферэйдж, Стью Чайкин
● Продолжительность: 00:51:43 (5 серий)
● Перевод: Любительский многоголосый (закадровый)
NewRecords, SkyeFilm
Описание фильма:
После похорон Брюса Уэйна, опекуна и наставника Дик Грейсон занимает его место. Теперь на улицах города перерожденный герой Ночное Крыло, первый Робин, помощник легендарного Бэтмена. Он вполне самодостаточен и самостоятельно борется со злом. Он не нуждается в посторонней помощи и даже помощь Бэтмена он не примет. Но не все гладко было у героя, статус Ночного Крыла не прибавил ему сверхспособностей, он не сильно отличался от своего учителя Бэтмена, разве что совсем немного ему в чем то уступал, хотя практически всему научился у Тёмного Рыцаря. Да он чуток быстрее наставника, гибче, эластичнее, он в состоянии сам постоять за себя и защитить других. Даже сам Бэтмен иногда нуждался в помощи напарника, не говоря уже о Тимоти Дрейке и Барбаре Гордон, которых Дик неоднократно спасал.
Информация о файле:
● Кодек: XviD
● Формат: AVI
● Качество: WEBRip
● Видео: 720x304 (2.37:1), 23.976 fps, ~1108 kbps avg, 0.21 bit/pixel
● Audio #1 Rus: 48 kHz, MPEG Layer 3, 2 ch, ~128.00 kbps avg - MVO-NewRecords
● Audio #2 Rus: 48 kHz, AC3 Dolby Digital, 2/0 (L,R) ch, ~192 kbps - MVO-SkyeFilm
● Audio #3 Eng: 48 kHz, AC3 Dolby Digital, 2/0 (L,R) ch, ~192 kbps

Семпл
Релиз от:
Общее
Полное имя: D:Nightwing_The Series. s01. avi. WEBRip (720x304)s01e01. Deathstroke.avi
Формат: AVI
Формат/Информация: Audio Video Interleave
Размер файла: 99,0 Мбайт
Продолжительность: 8 м. 26 с.
Общий поток: 1641 Кбит/сек
Название фильма: s01e01. Deathstroke
Программа кодирования: VirtualDubMod 1.5.10.3 (build 2550/release)
Правообладатель: SHAgroup-SHAmonstra-
Видео
Идентификатор: 0
Формат: MPEG-4 Visual
Профиль формата: Advanced Simple@L5
Параметр BVOP формата: 1
Параметр QPel формата: Нет
Параметр GMC формата: Без точки перехода
Параметр матрицы формата: Default (H.263)
Идентификатор кодека: XVID
Идентификатор кодека/Подсказка: XviD
Продолжительность: 8 м. 26 с.
Битрейт: 1110 Кбит/сек
Ширина: 720 пикселей
Высота: 304 пикселя
Соотношение сторон: 2,35:1
Частота кадров: 23,976 кадра/сек
Цветовое пространство: YUV
Субдискретизация насыщенности: 4:2:0
Битовая глубина: 8 бит
Тип развёртки: Прогрессивная
Метод сжатия: С потерями
Бит/(Пиксели*Кадры): 0.211
Размер потока: 67,0 Мбайт (68%)
Библиотека кодирования: XviD 1.2.1 (UTC 2008-12-04)
Аудио #1
Идентификатор: 1
Формат: MPEG Audio
Версия формата: Version 1
Профиль формата: Layer 3
Идентификатор кодека: 55
Идентификатор кодека/Подсказка: MP3
Продолжительность: 8 м. 25 с.
Вид битрейта: Постоянный
Битрейт: 128 Кбит/сек
Каналы: 2 канала
Частота: 48,0 КГц
Метод сжатия: С потерями
Размер потока: 7,72 Мбайт (8%)
Выравнивание: Соединение по промежуткам
Продолжительность промежутка: 42 мс. (1,00 видеокадр)
Время предзагрузки промежутка: 504 мс.
Заголовок: MVO-NewRecords
Аудио #2
Идентификатор: 2
Формат: AC-3
Формат/Информация: Audio Coding 3
Расширение режима: CM (complete main)
Параметр Endianness формата: Big
Идентификатор кодека: 2000
Продолжительность: 8 м. 26 с.
Вид битрейта: Постоянный
Битрейт: 192 Кбит/сек
Каналы: 2 канала
Расположение каналов: Front: L R
Частота: 48,0 КГц
Битовая глубина: 16 бит
Метод сжатия: С потерями
Задержка видео: 24 мс.
Размер потока: 11,6 Мбайт (12%)
Выравнивание: Разделение по промежуткам
Продолжительность промежутка: 42 мс. (1,00 видеокадр)
Время предзагрузки промежутка: 500 мс.
Заголовок: MVO-SkyeFilm
Аудио #3
Идентификатор: 3
Формат: AC-3
Формат/Информация: Audio Coding 3
Расширение режима: CM (complete main)
Параметр Endianness формата: Big
Идентификатор кодека: 2000
Продолжительность: 8 м. 26 с.
Вид битрейта: Постоянный
Битрейт: 192 Кбит/сек
Каналы: 2 канала
Расположение каналов: Front: L R
Частота: 48,0 КГц
Битовая глубина: 16 бит
Метод сжатия: С потерями
Задержка видео: 24 мс.
Размер потока: 11,6 Мбайт (12%)
Выравнивание: Разделение по промежуткам
Продолжительность промежутка: 42 мс. (1,00 видеокадр)
Время предзагрузки промежутка: 500 мс.
Заголовок: Original



   Похожие торренты   Торрент   Размер 
В этой теме нет новых непрочитанных сообщений. Ночное Крыло / Nightwing: The Series [s01] (2014) WEB-Rip | L

432 | 56

415.23 МБ

В этой теме нет новых непрочитанных сообщений. Ночное Крыло / Nightwing: The Series [01x01-02] (2014) WEB-Rip 1080р | NewRecords

475 | 19

252.59 МБ

В этой теме нет новых непрочитанных сообщений. Вампиры Морганвилля / Morganville: The Series [s01] (2014) WEBRip 1080p | L

38 | 9

2.29 ГБ

В этой теме нет новых непрочитанных сообщений. Смешанные единоборства. World Series Of Fighting 12 Palomino vs. Gonzalez [09.08] (2014) WEBRip

54 | 37

1.31 ГБ

В этой теме нет новых непрочитанных сообщений. Сборник - Ночное движение. Осенний драйв (2014) MP3

921 | 178

817.55 МБ

В этой теме нет новых непрочитанных сообщений. Злотников Роман, Маркелов Олег - Крыло ангела (2012) MP3

70 | 2

965.84 МБ

В этой теме нет новых непрочитанных сообщений. Крыло Орла / Eagle's Wing (1979) DVDRip от brazolargo

3 | 3

1.36 ГБ




Вы не можете начинать темы
Вы не можете отвечать на сообщения
Вы не можете редактировать свои сообщения
Вы не можете удалять свои сообщения
Вы не можете добавлять вложения

Перейти:  
Для Мосгорсуда, Роскомнадзора и рекламодателей: mosgorsud-torrent[собачка]yandex.ru
 Вход
ppkBB3cker v.2 © 2008-2014 @ PPK
[ Time : 0.079s | 16 Queries | GZIP : Off ]

Торрент трекер RUTOR.IN, Не можете зайти на rutor.org? Какой новый адрес рутор? Какое зеркало рутор? Не работает rutor.org и зеркала? Тогда наш торрент специально для вас. Rutor.in неофициальное зеркало rutor. В случае если у Вас заблокирован rutor или вдруг Вы не можете на него зайти, то Вы без труда сможете скачать бесплатно и без рекламы последние новинки кино, игр, сериалов и прочего у нас, на Rutor.in. Не нужно использовать прокси, чтобы зайти на рутор, достаточно воспользоваться нашим ресурсом. Все новые фильмы, игры, сериалы, книги и музыка за 2013 и 2014 годы через торрент бесплатно. Скачивайте фильмы в хорошем качестве, игры для пк, xbox, playstation без регистрации. У нас вы найдете новые Зарубежные сериалы и Русские сериалы 2013, 2014, 2015 годов. Оставайтесь с нами, качайте любимые фильмы, игры, сериалы, книги и музыку.