img image001 image001 image001 image001 image001 image001 image001 image001 image001 image001 image001 image001 image001 image001 image001

Planets Sun Sun Sun
Статистика раздачи
Автор: Nickolas3434 | Размер: 5.24 ГБ | Добавлен: 12 июл 2015
Раздают: 45    Качают: 77
Скачать торрент
Скачать торрент
Описание торрента

СообщениеДобавлено: 12 июл 2015 


Информация о фильме
Название: Салем
Оригинальное название: Salem
Год выхода: 2014
Жанр: Фантастика, триллер, драма
Режиссер: Ричард Шепард
В ролях: Шэйн Уэст, Джанет Монтгомери, Эжур Парсонс, Моргана Шоу, Сет Гейбл, Ксандер Беркли, Эшли Мадекве, Элиз Эберли, Джон Артур, Кристофер Берри, Дайан Салинджер
О фильме:
Сюжет сериала закручен вокруг отважного ветерана войны, который возвращается с полей сражений в родной Салем. Добравшись до родных мест, мужчина обнаруживает, что все местное население охвачено безумием охоты на «ведьм».

1. Сезон
01. Клятва / The Vow
02. Несчастное дитя / The Stone Child
03. Напрасно / In Vain
04. Выжившие / Survivors
05. Вранье / Lies
06. Красная роза и шиповник / The Red Rose and the Briar
07. Наша личная Америка / Our Own Private America
08. Отъезд / Departures
09. Бойтесь, дети / Children, Be Afraid
10. Дом боли / The House of Pain
11. Кошки-мышки / Cat and Mouse
12. Прах к праху / Ashes Ashes
13. Все падут / All Fall Down
2. Сезон
01. К убийству призывая (Cry Havoc)
02. Кровавый поцелуй (Blood Kiss)
03. Изнутри (From Within)
04. Книга теней (Book of Shadows)
05. Виноцветное море (The Wine Dark Sea)
06. К добру ли эта встреча при луне (Ill Met by Moonlight)
07. Манящая (The Beckoning Fair One)
08. Мертвые птицы (Dead Birds)
09. Плата за грехи (Wages of Sin)
10. Пока смерть не разлучит нас (Til Death Do Us Part)
11. Ад на земле (On Earth as in Hell)
12. Полночи не бывать (Midnight Never Come)
13. Ведьмин час (The Witching Hour)

Страна: США
Студия: Tribune Studios, Twentieth Century Fox Television
Продолжительность: 26 x ~ 00:45:00
Перевод: Профессиональный (многоголосый, закадровый) [AlexFilm]
Файл
Формат: MP4
Качество: WEB-DLRip | КПК
Видео: MPEG-4 AVC (x264), 640x360, ~500 kbps, 23.976 fps
Аудио: AAC LC, 48.0 KHz, 2 ch, 128 Kbps
Субтитры: Нет
Семпл

Complete name : E:KinoSalem.AVC.KPK.AF.GeneralfilmSalem.S02.2015.AVC.WEB-DLRip.KPK.AF.GeneralfilmSalem.s02e13.2015.AVC.WEB-DLRip.KPK.AF.Generalfilm.mp4
Format : MPEG-4
Codec ID : M4V
File size : 205 MiB
Duration : 45mn 17s
Overall bit rate mode : Variable
Overall bit rate : 633 Kbps
Writing application : Lavf53.19.0
Video
ID : 1
Format : AVC
Format/Info : Advanced Video Codec
Format profile : High@L4.1
Format settings, CABAC : Yes
Format settings, ReFrames : 8 frames
Codec ID : avc1
Codec ID/Info : Advanced Video Coding
Duration : 45mn 17s
Source duration : 16mn 39s
Bit rate : 500 Kbps
Width : 640 pixels
Height : 360 pixels
Display aspect ratio : 16:9
Frame rate mode : Constant
Frame rate : 23.976 fps
Color space : YUV
Chroma subsampling : 4:2:0
Bit depth : 8 bits
Scan type : Progressive
Bits/(Pixel*Frame) : 0.091
Stream size : 162 MiB (79%)
Source stream size : 162 MiB (79%)
Writing library : x264 core 130 r2273 b3065e6
Encoding settings : cabac=1 / ref=8 / deblock=1:-2:-2 / analyse=0x3:0x133 / me=umh / subme=10 / psy=1 / psy_rd=1.00:0.00 / mixed_ref=1 / me_range=24 / chroma_me=1 / trellis=2 / 8x8dct=1 / cqm=0 / deadzone=21,11 / fast_pskip=1 / chroma_qp_offset=-2 / threads=12 / lookahead_threads=2 / sliced_threads=0 / nr=0 / decimate=0 / interlaced=0 / bluray_compat=0 / constrained_intra=0 / bframes=8 / b_pyramid=2 / b_adapt=2 / b_bias=0 / direct=3 / weightb=1 / open_gop=0 / weightp=2 / keyint=240 / keyint_min=121 / scenecut=40 / intra_refresh=0 / rc_lookahead=40 / rc=2pass / mbtree=1 / bitrate=500 / ratetol=1.0 / qcomp=0.60 / qpmin=0 / qpmax=69 / qpstep=4 / cplxblur=20.0 / qblur=0.5 / ip_ratio=1.40 / aq=1:1.00
mdhd_Duration : 2717803
Audio
ID : 2
Format : AAC
Format/Info : Advanced Audio Codec
Format profile : LC
Codec ID : 40
Duration : 45mn 17s
Bit rate mode : Variable
Bit rate : 128 Kbps
Channel(s) : 2 channels
Channel positions : Front: L R
Sampling rate : 48.0 KHz
Compression mode : Lossy
Stream size : 41.3 MiB (20%)

Релиз от:



   Похожие торренты   Торрент   Размер 
В этой теме нет новых непрочитанных сообщений. Салем / Salem [S01-02] (2014-2015) WEB-DLRip от Generalfilm | AlexFilm

45 | 39

20.1 ГБ

В этой теме нет новых непрочитанных сообщений. Салем / Salem [S01-S02] (2014-2015) WEB-DLRip-AVC 1080p | AlexFilm

8 | 6

90.63 ГБ

В этой теме нет новых непрочитанных сообщений. Салем / Salem [01-02x01-23 из 26] (2014-2015 ) WEB-DLRip 1080p l AlexFilm

1 | 17

80.31 ГБ

В этой теме нет новых непрочитанных сообщений. Салем / Salem [s01] (2014) WEB-DLRip-AVC | AlexFilm

58 | 116

11.42 ГБ

В этой теме нет новых непрочитанных сообщений. Салем / Salem [02х01 из 13] (2015) WEB-DLRip | AlexFilm

137 | 4

549.81 МБ

В этой теме нет новых непрочитанных сообщений. Салем / Salem [01х01-08 из 13] (2014) WEB-DLRip | AlexFilm

21 | 62

4.15 ГБ

В этой теме нет новых непрочитанных сообщений. Салем / Salem [01х01-10 из 13] (2014) WEB-DLRip | AlexFilm

23 | 47

5.14 ГБ




Вы не можете начинать темы
Вы не можете отвечать на сообщения
Вы не можете редактировать свои сообщения
Вы не можете удалять свои сообщения
Вы не можете добавлять вложения

Перейти:  
Для Мосгорсуда, Роскомнадзора и рекламодателей: mosgorsud-torrent[собачка]yandex.ru
 Вход
ppkBB3cker v.2 © 2008-2014 @ PPK
[ Time : 0.695s | 16 Queries | GZIP : Off ]
CGP output time : 0.038s | 5 Queries | GZIP : Off

Торрент трекер RUTOR.IN, Не можете зайти на rutor.org? Какой новый адрес рутор? Какое зеркало рутор? Не работает rutor.org и зеркала? Тогда наш торрент специально для вас. Rutor.in неофициальное зеркало rutor. В случае если у Вас заблокирован rutor или вдруг Вы не можете на него зайти, то Вы без труда сможете скачать бесплатно и без рекламы последние новинки кино, игр, сериалов и прочего у нас, на Rutor.in. Не нужно использовать прокси, чтобы зайти на рутор, достаточно воспользоваться нашим ресурсом. Все новые фильмы, игры, сериалы, книги и музыка за 2013 и 2014 годы через торрент бесплатно. Скачивайте фильмы в хорошем качестве, игры для пк, xbox, playstation без регистрации. У нас вы найдете новые Зарубежные сериалы и Русские сериалы 2013, 2014, 2015 годов. Оставайтесь с нами, качайте любимые фильмы, игры, сериалы, книги и музыку.