img image001 image001 image001 image001 image001 image001 image001 image001 image001 image001 image001 image001 image001 image001 image001

Planets Sun Sun Sun
Статистика раздачи
Автор: Nickolas3434 | Размер: 20.1 ГБ | Добавлен: 12 июл 2015
Раздают: 51    Качают: 41
Скачать торрент
Скачать торрент
Описание торрента

СообщениеДобавлено: 12 июл 2015 


Информация о фильме
Название: Салем
Оригинальное название: Salem
Год выхода: 2014
Жанр: Фантастика, триллер, драма
Режиссер: Ричард Шепард
В ролях: Шэйн Уэст, Джанет Монтгомери, Эжур Парсонс, Моргана Шоу, Сет Гейбл, Ксандер Беркли, Эшли Мадекве, Элиз Эберли, Джон Артур, Кристофер Берри, Дайан Салинджер
О фильме:
Сюжет сериала закручен вокруг отважного ветерана войны, который возвращается с полей сражений в родной Салем. Добравшись до родных мест, мужчина обнаруживает, что все местное население охвачено безумием охоты на «ведьм».

1. Сезон
01. Клятва / The Vow
02. Несчастное дитя / The Stone Child
03. Напрасно / In Vain
04. Выжившие / Survivors
05. Вранье / Lies
06. Красная роза и шиповник / The Red Rose and the Briar
07. Наша личная Америка / Our Own Private America
08. Отъезд / Departures
09. Бойтесь, дети / Children, Be Afraid
10. Дом боли / The House of Pain
11. Кошки-мышки / Cat and Mouse
12. Прах к праху / Ashes Ashes
13. Все падут / All Fall Down
2. Сезон
01. К убийству призывая (Cry Havoc)
02. Кровавый поцелуй (Blood Kiss)
03. Изнутри (From Within)
04. Книга теней (Book of Shadows)
05. Виноцветное море (The Wine Dark Sea)
06. К добру ли эта встреча при луне (Ill Met by Moonlight)
07. Манящая (The Beckoning Fair One)
08. Мертвые птицы (Dead Birds)
09. Плата за грехи (Wages of Sin)
10. Пока смерть не разлучит нас (Til Death Do Us Part)
11. Ад на земле (On Earth as in Hell)
12. Полночи не бывать (Midnight Never Come)
13. Ведьмин час (The Witching Hour)

Страна: США
Студия: Tribune Studios, Twentieth Century Fox Television
Продолжительность: 26 x ~ 00:45:00
Перевод: Профессиональный (многоголосый, закадровый) [AlexFilm]
Файл
Формат: AVI
Качество: WEB-DLRip
Видео: XviD, 720x400, ~2200 kbps, 23.976 fps
Аудио: AC3, 48.0 KHz, 6 ch, 192 Kbps
Субтитры: Нет
Семпл

Complete name : E:KinoSalem.XviD.AF.GeneralfilmSalem.S02.2015.XviD.WEB-DLRip.AF.GeneralfilmSalem.s02e06.2015.XviD.WEB-DLRip.AF.Generalfilm.avi
Format : AVI
Format/Info : Audio Video Interleave
File size : 786 MiB
Duration : 45mn 6s
Overall bit rate : 2 436 Kbps
Writing application : VirtualDubMod 1.5.10.3 | www.virtualdub-fr.org || (build 2550/release)
Writing library : VirtualDubMod build 2550/release
Video
ID : 0
Format : MPEG-4 Visual
Format profile : Advanced Simple@L5
Format settings, BVOP : 2
Format settings, QPel : Yes
Format settings, GMC : 3 warppoints
Format settings, Matrix : Default (H.263)
Codec ID : XVID
Codec ID/Hint : XviD
Duration : 45mn 6s
Bit rate : 2 235 Kbps
Width : 720 pixels
Height : 400 pixels
Display aspect ratio : 16:9
Frame rate : 23.976 fps
Color space : YUV
Chroma subsampling : 4:2:0
Bit depth : 8 bits
Scan type : Progressive
Compression mode : Lossy
Bits/(Pixel*Frame) : 0.324
Stream size : 721 MiB (92%)
Writing library : XviD 1.2.1 (UTC 2008-12-04)
Audio
ID : 1
Format : AC-3
Format/Info : Audio Coding 3
Mode extension : CM (complete main)
Format settings, Endianness : Big
Codec ID : 2000
Duration : 45mn 6s
Bit rate mode : Constant
Bit rate : 192 Kbps
Channel(s) : 6 channels
Channel positions : Front: L C R, Side: L R, LFE
Sampling rate : 48.0 KHz
Compression mode : Lossy
Stream size : 62.0 MiB (8%)
Alignment : Split accross interleaves
Interleave, duration : 42 ms (1.00 video frame)
Interleave, preload duratio : 500 ms

Релиз от:



   Похожие торренты   Торрент   Размер 
В этой теме нет новых непрочитанных сообщений. Салем / Salem [S01-02] (2014-2015) WEB-DLRip от Generalfilm | КПК | AlexFilm

35 | 69

5.24 ГБ

В этой теме нет новых непрочитанных сообщений. Салем / Salem [S01-S02] (2014-2015) WEB-DLRip-AVC 1080p | AlexFilm

8 | 6

90.63 ГБ

В этой теме нет новых непрочитанных сообщений. Салем / Salem [01-02x01-23 из 26] (2014-2015 ) WEB-DLRip 1080p l AlexFilm

1 | 17

80.31 ГБ

В этой теме нет новых непрочитанных сообщений. Салем / Salem [s01] (2014) WEB-DLRip-AVC | AlexFilm

58 | 116

11.42 ГБ

В этой теме нет новых непрочитанных сообщений. Салем / Salem [02х01 из 13] (2015) WEB-DLRip | AlexFilm

137 | 4

549.81 МБ

В этой теме нет новых непрочитанных сообщений. Салем / Salem [01х01-07 из 13] (2014) WEB-DLRip | AlexFilm

42 | 95

3.63 ГБ

В этой теме нет новых непрочитанных сообщений. Салем / Salem [01х01-08 из 13] (2014) WEB-DLRip | AlexFilm

21 | 62

4.15 ГБ




Вы не можете начинать темы
Вы не можете отвечать на сообщения
Вы не можете редактировать свои сообщения
Вы не можете удалять свои сообщения
Вы не можете добавлять вложения

Перейти:  
Для Мосгорсуда, Роскомнадзора и рекламодателей: mosgorsud-torrent[собачка]yandex.ru
 Вход
ppkBB3cker v.2 © 2008-2014 @ PPK
[ Time : 0.057s | 14 Queries | GZIP : Off ]

Торрент трекер RUTOR.IN, Не можете зайти на rutor.org? Какой новый адрес рутор? Какое зеркало рутор? Не работает rutor.org и зеркала? Тогда наш торрент специально для вас. Rutor.in неофициальное зеркало rutor. В случае если у Вас заблокирован rutor или вдруг Вы не можете на него зайти, то Вы без труда сможете скачать бесплатно и без рекламы последние новинки кино, игр, сериалов и прочего у нас, на Rutor.in. Не нужно использовать прокси, чтобы зайти на рутор, достаточно воспользоваться нашим ресурсом. Все новые фильмы, игры, сериалы, книги и музыка за 2013 и 2014 годы через торрент бесплатно. Скачивайте фильмы в хорошем качестве, игры для пк, xbox, playstation без регистрации. У нас вы найдете новые Зарубежные сериалы и Русские сериалы 2013, 2014, 2015 годов. Оставайтесь с нами, качайте любимые фильмы, игры, сериалы, книги и музыку.