img image001 image001 image001 image001 image001 image001 image001 image001 image001 image001 image001 image001 image001 image001 image001

Planets Sun Sun Sun
Статистика раздачи
Автор: Nickolas3434 | Размер: 29.41 ГБ | Добавлен: 12 июл 2015
Раздают: 6    Качают: 10
Скачать торрент
Скачать торрент
Описание торрента

СообщениеДобавлено: 12 июл 2015 

Информация о сериале
Название: Холм одного дерева
Оригинальное название: One Tree Hill
Годы выхода: 2005-2006
Жанр: драма, спорт
Автор идеи: Марк Шван /Mark Schwahn/
Режиссеры: Грегори Прэндж /Gregory Prange/, Пол Йоханссон /Paul Johansson/, Марк Шван /Mark Schwahn/ и др.
В ролях: Чад Майкл Мюррэй /Chad Michael Murray/, Джеймс Лэфферти /James Lafferty/, Хилари Бертон /Hilarie Burton/, Бетани Джои Ленц /Bethany Joy Lenz/, Пол Йоханссон /Paul Johansson/, София Буш /Sophia Bush/, Бэрри Корбин /Barry Corbin/, Крэйг Шеффер /Craig Sheffer/, Мойра Келли /Moira Kelly/, Барбара Элин Вудс /Barbara Alyn Woods/ и др.
О сериале:
Помимо любви к баскетболу, кажется, что у Лукаса и Нейтена, двух молодых людей, нет ничего общего. За исключением темной тайны, заключающейся в том, что у них один отец. Высокомерный и уверенный, Нейтен — звезда баскетбольной команды средней школы и принадлежит самой богатой семье в городе.
Тихий и задумчивый, Лукас — единственный ребенок матери-одиночки. Он всегда держался на расстоянии от Нейтена. Но их жизни сталкиваются, когда Лукас попадает в команду Нейтена.

Страна: США
Студии: Tollin/Robbins Productions / Warner Bros. Television
Продолжительность: 22 x ~ 00:43:00
Перевод: Профессиональный (многоголосый, закадровый) - студия "НТВ+" по заказу НТВ
Файл
Кодек: H.264
Качество: WEB-DL 720p
Видео: 1280x720 at 23.976 fps, MPEG-4 AVC, ~4000 kbps avg
Аудио#1: Russian: 48 kHz, AC3, 2/0 (L,R) ch, ~192.00 kbps avg |Многоголосый закадровый, НТВ|
Аудио#2: English: 48 kHz, AC3, 2/0 (L,R) ch, ~192.00 kbps avg |Оригинал|
Субтитры: none

General
Complete name : One.Tree.Hill.S03E01.Like You Like an Arsonist.720p.WEB-DL.NTV (1).mkv
Format : Matroska
Format version : Version 2
File size : 1.34 GiB
Duration : 42mn 32s
Overall bit rate : 4 517 Kbps
Encoded date : UTC 2011-08-08 21:21:33
Writing application : mkvmerge v4.9.1 ('Ich will') сборка от Jul 11 2011 23:53:15
Writing library : libebml v1.2.1 + libmatroska v1.1.1
Video
ID : 1
Format : AVC
Format/Info : Advanced Video Codec
Format profile : High@L3.1
Format settings, CABAC : No
Format settings, ReFrames : 2 frames
Muxing mode : Header stripping
Codec ID : V_MPEG4/ISO/AVC
Duration : 42mn 32s
Bit rate : 4 043 Kbps
Width : 1 280 pixels
Height : 720 pixels
Display aspect ratio : 16:9
Frame rate mode : Constant
Frame rate : 23.976 fps
Color space : YUV
Chroma subsampling : 4:2:0
Bit depth : 8 bits
Scan type : Progressive
Bits/(Pixel*Frame) : 0.183
Stream size : 1.20 GiB (90%)
Language : English
Default : Yes
Forced : No
Color range : Limited
Color primaries : BT.709
Transfer characteristics : BT.709
Matrix coefficients : BT.709
Audio #1
ID : 2
Format : AC-3
Format/Info : Audio Coding 3
Mode extension : CM (complete main)
Format settings, Endianness : Big
Muxing mode : Header stripping
Codec ID : A_AC3
Duration : 42mn 32s
Bit rate mode : Constant
Bit rate : 192 Kbps
Channel(s) : 2 channels
Channel positions : Front: L R
Sampling rate : 48.0 KHz
Compression mode : Lossy
Stream size : 58.4 MiB (4%)
Title : НТВ+
Language : Russian
Default : Yes
Forced : No
Audio #2
ID : 3
Format : AC-3
Format/Info : Audio Coding 3
Mode extension : CM (complete main)
Format settings, Endianness : Big
Muxing mode : Header stripping
Codec ID : A_AC3
Duration : 42mn 32s
Bit rate mode : Constant
Bit rate : 192 Kbps
Channel(s) : 2 channels
Channel positions : Front: L R
Sampling rate : 48.0 KHz
Compression mode : Lossy
Stream size : 58.4 MiB (4%)
Language : English
Default : No
Forced : No
01. Like You Like an Arsonist / Неужели ты - поджигатель?
02. From the Edge of the Deep Green Sea / Со дна морского
03. First Day on a Brand New Planet / Первый день моей новой жизни
04. An Attempt to Tip the Scales / Устранение неполадок
05. A Multitude of Casualties / Обычные случайности
06. Locked Hearts and Hand Grenades / Запертые сердца и ручные гранаты
07. Champagne for My Real Friends, Real Pain for My Sham Friends / Награда для моих друзей и наказание для врагов
08. The Worst Day Since Yesterday / Сегодня ещё хуже, чем вчера
09. How a Resurrection Really Feels / Каково быть воскресшим
10. Brave New World / Дивный новый мир
11. Return of the Future / Будущее нас настигло
12. I've Got Dreams to Remember / Мечты на память
13. The Wind That Blew My Heart Away / Ветер, унёсший моё сердце
14. All Tomorrow's Parties / Ещё одно завтра
15. Just Watch the Fireworks / Наслаждайся фейерверком
16. With Tired Eyes, Tired Minds, Tired Souls, We Slept / С выплаканными глазами, изматывающими мыслями и терзаемыми душами мы уснули...
17. Who Will Survive, and What Will Be Left of Them / Мы выжили, а что дальше?
18. When It Isn't Like It Should Be / Жизнь наперекосяк
19. I Slept with Someone in Fall Out Boy and All I Got Was This Stupid Song Written About Me / Я провела ночь с парнем из группы «Fall Out Boy» и всё, что у меня есть - глупая песня в честь меня?
20. Everyday Is a Sunday Evening / Каждый день как воскресенье
21. Over the Hills and Far Away / Там за холмами и дальше
22. The Show Must Go On / Шоу должно продолжаться



   Похожие торренты   Торрент   Размер 
В этой теме нет новых непрочитанных сообщений. Холм одного дерева / One Tree Hill [S03] (2005-2006) DVDRip от НТВ+

15 | 5

7.97 ГБ

В этой теме нет новых непрочитанных сообщений. Холм одного дерева / One Tree Hill [S02] (2004-2005) WEB-DL 720p | НТВ

3 | 8

30.87 ГБ

В этой теме нет новых непрочитанных сообщений. Холм одного дерева / One Tree Hill [S04] (2006-2007) WEB-DL 720p | НТВ

0 | 2

27.84 ГБ

В этой теме нет новых непрочитанных сообщений. Холм одного дерева / One Tree Hill [S02] (2005) DVDRip от НТВ+

41 | 22

8.77 ГБ

В этой теме нет новых непрочитанных сообщений. Холм одного дерева / One Tree Hill [S04] (2006-2007) DVDRip от НТВ+

11 | 10

7.98 ГБ

В этой теме нет новых непрочитанных сообщений. Холм одного дерева / One Tree Hill [S05] (2008) WEB-DL 720p | НТВ

15 | 5

24.52 ГБ

В этой теме нет новых непрочитанных сообщений. Холм одного дерева / One Tree Hill [S07] (2009-2010) WEB-DL 720p | НТВ

6 | 2

29.72 ГБ




Вы не можете начинать темы
Вы не можете отвечать на сообщения
Вы не можете редактировать свои сообщения
Вы не можете удалять свои сообщения
Вы не можете добавлять вложения

Перейти:  
Для Мосгорсуда, Роскомнадзора и рекламодателей: mosgorsud-torrent[собачка]yandex.ru
 Вход
ppkBB3cker v.2 © 2008-2014 @ PPK
[ Time : 1.252s | 17 Queries | GZIP : Off ]

Торрент трекер RUTOR.IN, Не можете зайти на rutor.org? Какой новый адрес рутор? Какое зеркало рутор? Не работает rutor.org и зеркала? Тогда наш торрент специально для вас. Rutor.in неофициальное зеркало rutor. В случае если у Вас заблокирован rutor или вдруг Вы не можете на него зайти, то Вы без труда сможете скачать бесплатно и без рекламы последние новинки кино, игр, сериалов и прочего у нас, на Rutor.in. Не нужно использовать прокси, чтобы зайти на рутор, достаточно воспользоваться нашим ресурсом. Все новые фильмы, игры, сериалы, книги и музыка за 2013 и 2014 годы через торрент бесплатно. Скачивайте фильмы в хорошем качестве, игры для пк, xbox, playstation без регистрации. У нас вы найдете новые Зарубежные сериалы и Русские сериалы 2013, 2014, 2015 годов. Оставайтесь с нами, качайте любимые фильмы, игры, сериалы, книги и музыку.
cron