img image001 image001 image001 image001 image001 image001 image001 image001 image001 image001 image001 image001 image001 image001 image001

Planets Sun Sun Sun
Статистика раздачи
Автор: Nickolas3434 | Размер: 27.84 ГБ | Добавлен: 22 июл 2015
Раздают: 0    Качают: 2
Скачать торрент
Скачать торрент
Описание торрента

СообщениеДобавлено: 22 июл 2015 

Информация о сериале
Название: Холм одного дерева
Оригинальное название: One Tree Hill
Годы выхода: 2006-2007
Жанр: драма, спорт
Автор идеи: Марк Шван /Mark Schwahn/
Режиссеры: Грегори Прэндж /Gregory Prange/, Пол Йоханссон /Paul Johansson/, Марк Шван /Mark Schwahn/ и др.
В ролях: Чад Майкл Мюррэй /Chad Michael Murray/, Джеймс Лэфферти /James Lafferty/, Хилари Бертон /Hilarie Burton/, Бетани Джои Ленц /Bethany Joy Lenz/, Пол Йоханссон /Paul Johansson/, София Буш /Sophia Bush/, Мойра Келли /Moira Kelly/, Барбара Элин Вудс /Barbara Alyn Woods/, Ли Норрис /Lee Norris/, Дэннил Харрис Эклс /Danneel Harris Ackles/ и др.
О сериале:
Помимо любви к баскетболу, кажется, что у Лукаса и Нейтена, двух молодых людей, нет ничего общего. За исключением темной тайны, заключающейся в том, что у них один отец. Высокомерный и уверенный, Нейтен — звезда баскетбольной команды средней школы и принадлежит самой богатой семье в городе.
Тихий и задумчивый, Лукас — единственный ребенок матери-одиночки. Он всегда держался на расстоянии от Нейтена. Но их жизни сталкиваются, когда Лукас попадает в команду Нейтена.

Страна: США
Студии: Tollin/Robbins Productions / Warner Bros. Television
Продолжительность: 21 x ~ 00:43:00
Перевод: Профессиональный (многоголосый, закадровый) - студия "НТВ+" по заказу НТВ
Файл
Кодек: H.264
Качество: WEB-DL 720p
Видео: 1280x720 at 23.976 fps, MPEG-4 AVC, ~4000 kbps avg
Аудио#1: Russian: 48 kHz, AC3, 2/0 (L,R) ch, ~192.00 kbps avg |Многоголосый закадровый, НТВ|
Аудио#2: English: 48 kHz, AC3, 2/0 (L,R) ch, ~192.00 kbps avg |Оригинал|
Субтитры: none

General
Complete name : One.Tree.Hill.S04E01.The Same Deep Water As You.720p.WEB-DL.NTV.mkv
Format : Matroska
Format version : Version 2
File size : 1.34 GiB
Duration : 42mn 19s
Overall bit rate : 4 516 Kbps
Movie name : Release by Budda
Encoded date : UTC 2011-09-12 21:39:57
Writing application : mkvmerge v4.9.1 ('Ich will') built on Jul 11 2011 23:53:15
Writing library : libebml v1.2.1 + libmatroska v1.1.1
Video
ID : 1
Format : AVC
Format/Info : Advanced Video Codec
Format profile : High@L3.1
Format settings, CABAC : No
Format settings, ReFrames : 2 frames
Codec ID : V_MPEG4/ISO/AVC
Duration : 42mn 19s
Bit rate : 4 042 Kbps
Width : 1 280 pixels
Height : 720 pixels
Display aspect ratio : 16:9
Frame rate mode : Constant
Frame rate : 23.976 fps
Color space : YUV
Chroma subsampling : 4:2:0
Bit depth : 8 bits
Scan type : Progressive
Bits/(Pixel*Frame) : 0.183
Stream size : 1.20 GiB (90%)
Title : One Tree Hill S04E01 - "The Same Deep Water as You"
Language : English
Default : Yes
Forced : No
Color range : Limited
Color primaries : BT.709
Transfer characteristics : BT.709
Matrix coefficients : BT.709
Audio #1
ID : 2
Format : AC-3
Format/Info : Audio Coding 3
Mode extension : CM (complete main)
Format settings, Endianness : Big
Codec ID : A_AC3
Duration : 42mn 19s
Bit rate mode : Constant
Bit rate : 192 Kbps
Channel(s) : 2 channels
Channel positions : Front: L R
Sampling rate : 48.0 KHz
Compression mode : Lossy
Stream size : 58.1 MiB (4%)
Title : AC3 2.0 @ 192 kbps [HTB+]
Language : Russian
Default : Yes
Forced : No
Audio #2
ID : 3
Format : AC-3
Format/Info : Audio Coding 3
Mode extension : CM (complete main)
Format settings, Endianness : Big
Codec ID : A_AC3
Duration : 42mn 19s
Bit rate mode : Constant
Bit rate : 192 Kbps
Channel(s) : 2 channels
Channel positions : Front: L R
Sampling rate : 48.0 KHz
Compression mode : Lossy
Stream size : 58.1 MiB (4%)
Title : AC3 2.0 @ 192 kbps
Language : English
Default : No
Forced : No
01. The Same Deep Water as You / В закоулках души
02. Things I Forgot at Birth / То, что я забыл в День Рождения
03. Good News for People Who Love Bad News / «Отличные» новости
04. Can't Stop This Thing We've Started / Не могу остановиться!
05. I Love You But I've Chosen Darkness / Я люблю тебя, но выбираю тёмную сторону…
06. Where Did You Sleep Last Night? / Где ты провёл прошлую ночь?
07. All These Things That I've Done / Всё, что я натворил
08. Nothing Left to Say But Goodbye / Остаётся только сказать «Прощай!»
09. Some You Give Away / Те, кого ты отпустил
10. Songs to Love and Die By / Песни любви и смерти
11. Everything in Its Right Place / На своих местах
12. Resolve / Решения
13. Pictures of You / Как ты выглядишь со стороны
14. Sad Songs for Dirty Lovers / Грустная песня запретной любви
15. Prom Night at Hater High / Адский выпускной
16. You Call It Madness, But I Call It Love / Сумасшедшая любовь
17. It Gets Worse at Night / Худшее только начинается…
18. The Runaway Found / Сбежавшая находка
19. Ashes of Dreams You Let Die / Погубивший собственную мечту
20. The Birth and Death of the Day / Восход и закат
21. All of a Sudden I Miss Everyone / Ни с того, ни с сего я начал по всем скучать



   Похожие торренты   Торрент   Размер 
В этой теме нет новых непрочитанных сообщений. Холм одного дерева / One Tree Hill [S04] (2006-2007) DVDRip от НТВ+

11 | 10

7.98 ГБ

В этой теме нет новых непрочитанных сообщений. Холм одного дерева / One Tree Hill [S03] (2005-2006) WEB-DL 720p | НТВ

6 | 10

29.41 ГБ

В этой теме нет новых непрочитанных сообщений. Холм одного дерева / One Tree Hill [S03] (2005-2006) DVDRip от НТВ+

15 | 5

7.97 ГБ

В этой теме нет новых непрочитанных сообщений. Холм одного дерева / One Tree Hill [S05] (2007-2008) DVDRip от НТВ+

5 | 18

6.83 ГБ

В этой теме нет новых непрочитанных сообщений. Холм одного дерева / One Tree Hill [S05] (2008) WEB-DL 720p | НТВ

15 | 5

24.52 ГБ

В этой теме нет новых непрочитанных сообщений. Холм одного дерева / One Tree Hill [S02] (2004-2005) WEB-DL 720p | НТВ

5 | 12

30.87 ГБ

В этой теме нет новых непрочитанных сообщений. Холм одного дерева / One Tree Hill [S07] (2009-2010) WEB-DL 720p | НТВ

2 | 1

29.72 ГБ




Вы не можете начинать темы
Вы не можете отвечать на сообщения
Вы не можете редактировать свои сообщения
Вы не можете удалять свои сообщения
Вы не можете добавлять вложения

Перейти:  
Для Мосгорсуда, Роскомнадзора и рекламодателей: mosgorsud-torrent[собачка]yandex.ru
 Вход
ppkBB3cker v.2 © 2008-2014 @ PPK
[ Time : 0.067s | 15 Queries | GZIP : Off ]
CGP output time : 0.030s | 5 Queries | GZIP : Off

Торрент трекер RUTOR.IN, Не можете зайти на rutor.org? Какой новый адрес рутор? Какое зеркало рутор? Не работает rutor.org и зеркала? Тогда наш торрент специально для вас. Rutor.in неофициальное зеркало rutor. В случае если у Вас заблокирован rutor или вдруг Вы не можете на него зайти, то Вы без труда сможете скачать бесплатно и без рекламы последние новинки кино, игр, сериалов и прочего у нас, на Rutor.in. Не нужно использовать прокси, чтобы зайти на рутор, достаточно воспользоваться нашим ресурсом. Все новые фильмы, игры, сериалы, книги и музыка за 2013 и 2014 годы через торрент бесплатно. Скачивайте фильмы в хорошем качестве, игры для пк, xbox, playstation без регистрации. У нас вы найдете новые Зарубежные сериалы и Русские сериалы 2013, 2014, 2015 годов. Оставайтесь с нами, качайте любимые фильмы, игры, сериалы, книги и музыку.