img image001 image001 image001 image001 image001 image001 image001 image001 image001 image001 image001 image001 image001 image001 image001

Planets Sun Sun Sun
Статистика раздачи
Автор: Nickolas3434 | Размер: 32.86 ГБ | Добавлен: 23 июл 2015
Раздают: 79    Качают: 94
Скачать торрент
Скачать торрент
Описание торрента

СообщениеДобавлено: 23 июл 2015 

Информация о сериале
Название: Мыслить как преступник
Оригинальное название: Criminal Minds
Годы выхода: 2006-2007
Жанр: драма, криминал, детектив, триллер
Автор идеи: Джефф Дэвис /Jeff Davis/
Режиссеры: Гленн Кершоу /Glenn Kershaw/, Феликс Энрикез Алькала /Félix Enríquez Alcalá/, Эдвард Аллен Бернеро /Edward Allen Bernero/ и др.
В ролях: Мэнди Пэтинкин /Mandy Patinkin/, Томас Гибсон /Thomas Gibson/, Лола Глаудини /Lola Glaudini/, Пэйджет Брюстер /Paget Brewster/, Шемар Мур /Shemar Moore/, Мэттью Грей Гублер /Matthew Gray Gubler/, А.Дж. Кук /A.J. Cook/, Кирстен Вангснесс /Kirsten Vangsness/ и др.
О сериале:
Главные герои сериала - команда лучших следователей ФБР, способных понять и проанализировать ход мыслей самых изощрённых преступников, предугадать их дальнейшие поступки и тем самым предотвратить ужасные преступления. Когда обычные криминалисты заходят в тупик, на помощь им приходят специалисты по поведенческому анализу.
Вместо тщательного изучения улик они пытаются найти и понять мотивы преступления, досконально вникая в каждый шаг преступника и пытаясь мыслить, как он. Работая на месте преступления, эти профессионалы словно расследуют его изнутри, стараясь понять мысли преступника, какими бы тёмными они ни были.

Страна: США, Канада
Студии: The Mark Gordon Company / Paramount Network Television / Touchstone Television
Продолжительность: 23 x ~ 00:43:00
Перевод: Профессиональный (двухголосый, закадровый) - ДТВ
Файл
Кодек: H.264
Качество: WEB-DL 720p
Видео: 1280x720 at 23.976 fps, MPEG-4 AVC, ~4000 kbps avg
Аудио#1: Russian: 48 kHz, AC3, 2/0 (L,R) ch, ~192.00 kbps avg |Двухголосый закадровый, ДТВ|
Аудио#2: English: 48 kHz, AC3, 3/2 (L,C,R,l,r) + LFE ch, ~384.00 kbps avg |Оригинал|
Субтитры: none

General
Complete name : Criminal.Minds.S02E01.rus(DTV).eng.720p.web-dl.mkv
Format : Matroska
Format version : Version 2
File size : 1.41 GiB
Duration : 42mn 47s
Overall bit rate : 4 726 Kbps
Encoded date : UTC 2011-05-15 12:59:34
Writing application : mkvmerge v4.7.0 ('Just Like You Imagined') сборка от Apr 21 2011 01:13:14
Writing library : libebml v1.2.0 + libmatroska v1.1.0
Video
ID : 1
Format : AVC
Format/Info : Advanced Video Codec
Format profile : High@L3.1
Format settings, CABAC : No
Format settings, ReFrames : 2 frames
Codec ID : V_MPEG4/ISO/AVC
Duration : 42mn 47s
Bit rate : 4 056 Kbps
Width : 1 280 pixels
Height : 720 pixels
Display aspect ratio : 16:9
Frame rate mode : Constant
Frame rate : 23.976 fps
Color space : YUV
Chroma subsampling : 4:2:0
Bit depth : 8 bits
Scan type : Progressive
Bits/(Pixel*Frame) : 0.184
Stream size : 1.21 GiB (86%)
Language : English
Default : Yes
Forced : No
Color range : Limited
Color primaries : BT.709
Transfer characteristics : BT.709
Matrix coefficients : BT.709
Audio #1
ID : 2
Format : AC-3
Format/Info : Audio Coding 3
Mode extension : CM (complete main)
Format settings, Endianness : Big
Codec ID : A_AC3
Duration : 42mn 47s
Bit rate mode : Constant
Bit rate : 192 Kbps
Channel(s) : 2 channels
Channel positions : Front: L R
Sampling rate : 48.0 KHz
Compression mode : Lossy
Stream size : 58.8 MiB (4%)
Title : DTV
Language : Russian
Default : No
Forced : No
Audio #2
ID : 3
Format : AC-3
Format/Info : Audio Coding 3
Mode extension : CM (complete main)
Format settings, Endianness : Big
Codec ID : A_AC3
Duration : 42mn 47s
Bit rate mode : Constant
Bit rate : 384 Kbps
Channel(s) : 6 channels
Channel positions : Front: L C R, Side: L R, LFE
Sampling rate : 48.0 KHz
Compression mode : Lossy
Stream size : 118 MiB (8%)
Language : English
Default : No
Forced : No
01. The Fisher King: Part 2 / Король - рыбак (часть 2)
02. P911 / P911
03. The Perfect Storm / Идеальный шторм
04. Psychodrama / Психодрама
05. The Aftermath / Последствия
06. The Boogeyman / Бугимэн
07. North Mammon / Клетка
08. Empty Planet / Пустая планета
09. The Last Word / Последнее слово
10. Lessons Learned / Преподать урок
11. Sex, Birth, Death / Секс, рождение и смерть
12. Profiler, Profiled / Профайл профайлера
13. No Way Out / Выхода нет
14. The Big Game / Большая игра
15. Revelations / Откровение
16. Fear and Loathing / Страх и отвращение
17. Distress / Бедствие
18. Jones / Джонс
19. Ashes and Dust / Пыль и пепел
20. Honor Among Thieves / Честь среди воров
21. Open Season / Сезон охоты
22. Legacy / Наследие
23. No Way Out II: The Evilution of Frank / Выхода нет 2: Зловолюция Фрэнка



   Похожие торренты   Торрент   Размер 
В этой теме нет новых непрочитанных сообщений. Мыслить как преступник / Criminal Minds [s02] (2006-2007) HDTVRip, DVDRip

106 | 39

8.79 ГБ

В этой теме нет новых непрочитанных сообщений. Мыслить как преступник / Criminal Minds [S01] (2005-2006) WEB-DL 720p | ДТВ

71 | 78

30.97 ГБ

В этой теме нет новых непрочитанных сообщений. Мыслить как преступник / Criminal Minds [S03] (2007-2008) WEB-DL 720p | Fox Crime, ДТВ

50 | 28

29.15 ГБ

В этой теме нет новых непрочитанных сообщений. Мыслить как преступник / Criminal Minds [S1] (2006) DVDRip

350 | 109

8.2 ГБ

В этой теме нет новых непрочитанных сообщений. Мыслить как преступник / Criminal Minds [s03] (2007-2008) HDTVRip

92 | 30

7.81 ГБ

В этой теме нет новых непрочитанных сообщений. Мыслить как преступник / Criminal Minds [11x01-08 из 23] (2015) WEB-DL 720p | Fox

66 | 15

10.71 ГБ

В этой теме нет новых непрочитанных сообщений. Мыслить как преступник / Criminal Minds [11x01-02 из 23] (2015) WEB-DL 720p | Fox

16 | 12

2.7 ГБ




Вы не можете начинать темы
Вы не можете отвечать на сообщения
Вы не можете редактировать свои сообщения
Вы не можете удалять свои сообщения
Вы не можете добавлять вложения

Перейти:  
Для Мосгорсуда, Роскомнадзора и рекламодателей: mosgorsud-torrent[собачка]yandex.ru
 Вход
ppkBB3cker v.2 © 2008-2014 @ PPK
[ Time : 0.058s | 16 Queries | GZIP : Off ]

Торрент трекер RUTOR.IN, Не можете зайти на rutor.org? Какой новый адрес рутор? Какое зеркало рутор? Не работает rutor.org и зеркала? Тогда наш торрент специально для вас. Rutor.in неофициальное зеркало rutor. В случае если у Вас заблокирован rutor или вдруг Вы не можете на него зайти, то Вы без труда сможете скачать бесплатно и без рекламы последние новинки кино, игр, сериалов и прочего у нас, на Rutor.in. Не нужно использовать прокси, чтобы зайти на рутор, достаточно воспользоваться нашим ресурсом. Все новые фильмы, игры, сериалы, книги и музыка за 2013 и 2014 годы через торрент бесплатно. Скачивайте фильмы в хорошем качестве, игры для пк, xbox, playstation без регистрации. У нас вы найдете новые Зарубежные сериалы и Русские сериалы 2013, 2014, 2015 годов. Оставайтесь с нами, качайте любимые фильмы, игры, сериалы, книги и музыку.
cron