img image001 image001 image001 image001 image001 image001 image001 image001 image001 image001 image001 image001 image001 image001 image001

Planets Sun Sun Sun
Статистика раздачи
Автор: Nickolas3434 | Размер: 7.16 ГБ | Добавлен: 24 июл 2015
Раздают: 6    Качают: 12
Скачать торрент
Скачать торрент
Описание торрента

СообщениеДобавлено: 24 июл 2015 


Название: Уэйворд Пайнс
Оригинальное название: Wayward Pines
Год выхода: 2015
Жанр: драма, триллер, фантастика
Режиссер: Зал Батманглидж, Тим Хантер, Нимрод Антал
В ролях: Мэтт Диллон, Карла Гуджино, Тоби Джонс, Шаннин Соссамон, Рид Даймонд, Тим Гриффин, Чарли Тахэн, Джульетт Льюис, Мелисса Лео, Терренс Ховард
О фильме: Агент секретной службы Итан Берк приезжает в пасторальный городок Уэйуорд Пайнс в Айдахо, чтобы найти двух пропавших фэбээровцев. Но расследование вместо ответов приносит лишь новые вопросы. Что же происходит в Уэйуорд Пайнс?
Страна: США
Продолжительность: ~00:40:00
Перевод: Любительский (двухголосый закадровый) Victory-Films
Субтитры: Отсутствуют

Файл
Кодек: H.264
Контейнер: MKV
Качество: WEB-DL 720p
Видео: AVC, 1280x720 (16:9), 23.976fps, 3130 Kbps
Аудио: AC3, 48000Hz, 6ch, ~448kbps
Релиз группа:


Полное имя : E:Уэйуорд Пайнс 1 сезон - Victory-Filmswayward.pines.s01e01.720p.hdtv.x264-Victory-Films.mkv
Формат : Matroska
Версия формата : Version 2
Размер файла : 1,09 Гбайт
Продолжительность : 43 м.
Общий поток : 3543 Кбит/сек
Дата кодирования : UTC 2015-04-30 00:21:01
Программа кодирования : Lavf54.63.104
Библиотека кодирования : Lavf54.63.104
Видео
Идентификатор : 1
Формат : AVC
Формат/Информация : Advanced Video Codec
Профиль формата : Main@L3.1
Параметр CABAC формата : Да
Параметр ReFrames формата : 1 кадр
Идентификатор кодека : V_MPEG4/ISO/AVC
Продолжительность : 43 м.
Битрейт : 3130 Кбит/сек
Ширина : 1280 пикселей
Высота : 720 пикселей
Соотношение сторон : 16:9
Режим частоты кадров : Постоянный
Частота кадров : 23,976 кадра/сек
Цветовое пространство : YUV
Субдискретизация насыщенности : 4:2:0
Битовая глубина : 8 бит
Тип развёртки : Прогрессивная
Бит/(Пиксели*Кадры) : 0.142
Размер потока : 949 Мбайт (85%)
Библиотека кодирования : x264 core 129
Default : Да
Forced : Нет
Аудио
Идентификатор : 2
Формат : AC-3
Формат/Информация : Audio Coding 3
Расширение режима : CM (complete main)
Параметр Endianness формата : Big
Идентификатор кодека : A_AC3
Продолжительность : 43 м.
Вид битрейта : Постоянный
Битрейт : 448 Кбит/сек
Каналы : 6 каналов
Расположение каналов : Front: L C R, Side: L R, LFE
Частота : 48,0 КГц
Битовая глубина : 16 бит
Метод сжатия : С потерями
Размер потока : 141 Мбайт (13%)
Default : Да
Forced : Нет
Внимание! Раздача ведётся путём добавления новых серий; при каждом добавлении создаётся новый торрент. Чтобы начать докачку новой серии, пользователям необходимо сделать следующее:
(1) остановить скачивание,
(2) удалить старый торрент у себя из клиента (старые серии удалять не надо),
(3) скачать новый торрент и запустить его у себя в клиенте вместо старого, при этом указать клиенту путь в старую папку куда и должно происходить скачивание новых серий.
Ваш клиент при этом должен произвести хеширование (проверку) старой папки (если не производит сам - помогите ему сделать это), и будет докачивать только те серии которых у вас ещё нет. Старые серии при этом не удаляются, а продолжают раздаваться!
Eсли вы уже удалили старые серии, то предотвратить повторную закачку старых серий можно, отжав галочку в соответсвующих местах при запуске нового торрента. По возможности, желательно не удалять старые серии как можно дольше чтобы релизёр не столько продолжал раздавать старые серии, а смог сконцентрироваться на новых.



   Похожие торренты   Торрент   Размер 
В этой теме нет новых непрочитанных сообщений. Уэйворд Пайнс / Уэйуорд Пайнс / Сосны / Wayward Pines [01x01-03 из 10] (2015) HDTVRip | P | FOX

141 | 9

2.18 ГБ

В этой теме нет новых непрочитанных сообщений. Уэйворд Пайнс / Уэйуорд Пайнс / Сосны / Wayward Pines [01x01-05 из 10] (2015) HDTVRip | P | FOX

18 | 15

3.68 ГБ

В этой теме нет новых непрочитанных сообщений. Уэйворд Пайнс / Уэйуорд Пайнс / Сосны / Wayward Pines [01x01-03 из 10] (2015) HDTV 720p | P | FOX

27 | 11

2.7 ГБ

В этой теме нет новых непрочитанных сообщений. Уэйворд Пайнс / Уэйуорд Пайнс / Сосны / Wayward Pines [01x01-05 из 10] (2015) HDTV 720p | P | FOX

14 | 14

4.31 ГБ

В этой теме нет новых непрочитанных сообщений. Уэйворд Пайнс / Уэйуорд Пайнс / Сосны / Wayward Pines [01x01-06 из 10] (2015) HDTVRip от CasStudio | P | FOX

21 | 60

4.41 ГБ

В этой теме нет новых непрочитанных сообщений. Уэйворд Пайнс / Уэйуорд Пайнс / Сосны / Wayward Pines [01x01-02 из 10] (2015) WEB-DL 1080p | NewStudio

23 | 0

3.56 ГБ

В этой теме нет новых непрочитанных сообщений. Уэйворд Пайнс / Уэйуорд Пайнс / Сосны / Wayward Pines [01x01-02 из 10] (2015) WEB-DL 720p | NewStudio

15 | 0

2.87 ГБ




Вы не можете начинать темы
Вы не можете отвечать на сообщения
Вы не можете редактировать свои сообщения
Вы не можете удалять свои сообщения
Вы не можете добавлять вложения

Перейти:  
Для Мосгорсуда, Роскомнадзора и рекламодателей: mosgorsud-torrent[собачка]yandex.ru
 Вход
ppkBB3cker v.2 © 2008-2014 @ PPK
[ Time : 0.052s | 14 Queries | GZIP : Off ]

Торрент трекер RUTOR.IN, Не можете зайти на rutor.org? Какой новый адрес рутор? Какое зеркало рутор? Не работает rutor.org и зеркала? Тогда наш торрент специально для вас. Rutor.in неофициальное зеркало rutor. В случае если у Вас заблокирован rutor или вдруг Вы не можете на него зайти, то Вы без труда сможете скачать бесплатно и без рекламы последние новинки кино, игр, сериалов и прочего у нас, на Rutor.in. Не нужно использовать прокси, чтобы зайти на рутор, достаточно воспользоваться нашим ресурсом. Все новые фильмы, игры, сериалы, книги и музыка за 2013 и 2014 годы через торрент бесплатно. Скачивайте фильмы в хорошем качестве, игры для пк, xbox, playstation без регистрации. У нас вы найдете новые Зарубежные сериалы и Русские сериалы 2013, 2014, 2015 годов. Оставайтесь с нами, качайте любимые фильмы, игры, сериалы, книги и музыку.