img image001 image001 image001 image001 image001 image001 image001 image001 image001 image001 image001 image001 image001 image001 image001

Planets Sun Sun Sun
Статистика раздачи
Автор: Nickolas3434 | Размер: 29.08 ГБ | Добавлен: 24 июл 2015
Раздают: 131    Качают: 42
Скачать торрент
Скачать торрент
Описание торрента

СообщениеДобавлено: 24 июл 2015 

Информация о сериале
Название: Тайны Смолвиля
Оригинальное название: Smallville
Годы выхода: 2004-2005
Жанр: драма, фантастика
Авторы идеи: Альфред Гоф /Alfred Gough/, Майлз Миллар /Miles Millar/
Режиссеры: Джеймс Маршалл /James Marshall/, Грег Биман /Greg Beeman/, Майк Рол /Mike Rohl/ и др.
В ролях: Том Уэллинг /Tom Welling/, Кристин Крук /Kristin Kreuk/, Майкл Розенбаум /Michael Rosenbaum/, Дженсен Эклс /Jensen Ackles/, Эллисон Мэк /Allison Mack/, Джон Гловер /John Glover/, Аннетт О’Тул /Annette O'Toole/, Джон Шнайдер /John Schneider/ и др.
О сериале:
1989 год, метеоритный дождь в городе Смолвиль наносит невиданные разрушения, а в бездетной семье жителей Смолвиля странным образом появляется маленький ребёнок — Кларк Кент.
Прошло много лет. Кларк уже учится в школе. Его ошеломляющие способности заставляют его чаще задуматься о том, кто он собственно такой. К тому же он влюблен в одноклассницу — Лану Лэнг, чьи родители пропали во время метеоритного дождя. Этот фактор значительно осложняет их отношения. Внимательные родители Кларка пытаются любым путём сберечь его секрет, даже возбраняют ему выступать в школьной футбольной команде.
Однажды Кларк спас жизнь молодого бизнесмена Лекса Лютера, когда машина бизнесмена, потеряв управление, падает с моста в реку. С этого обстоятельства и завязывается череда многообразных похождений супермена — Кларка Кента.

Страны: США, Канада
Студии: Tollin/Robbins Productions / Millar Gough Ink / Warner Bros. Television и др.
Продолжительность: 22 x ~ 00:43:00
Перевод: Профессиональный (многоголосый, закадровый) - студия "Русский дубляж" по заказу СТС
Файл
Кодек: H.264
Качество: WEB-DL 720p
Видео: 1280x718 at 23.976 fps, MPEG-4 AVC, ~3800 kbps avg
Аудио#1: Russian: 48 kHz, AC3, 2/0 (L,R) ch, ~160.00 kbps avg |Многоголосый закадровый, СТС|
Аудио#2: English: 48 kHz, AC3, 2/0 (L,R) ch, ~160.00 kbps avg |Оригинал|
Субтитры: none

General
Complete name : smallville.s04e01.Crusade.web-dl.720p.ac3_2.0.rus.eng.mkv
Format : Matroska
Format version : Version 2
File size : 1.30 GiB
Duration : 43mn 45s
Overall bit rate : 4 257 Kbps
Encoded date : UTC 2011-04-25 15:17:35
Writing application : mkvmerge v4.5.0 ('Speed of Light') сборка от Feb 1 2011 02:10:32
Writing library : libebml v1.2.0 + libmatroska v1.1.0
Video
ID : 1
Format : AVC
Format/Info : Advanced Video Codec
Format profile : High@L3.1
Format settings, CABAC : No
Format settings, ReFrames : 2 frames
Muxing mode : Header stripping
Codec ID : V_MPEG4/ISO/AVC
Duration : 43mn 45s
Bit rate : 3 853 Kbps
Width : 1 280 pixels
Height : 718 pixels
Display aspect ratio : 16:9
Frame rate mode : Constant
Frame rate : 23.976 fps
Color space : YUV
Chroma subsampling : 4:2:0
Bit depth : 8 bits
Scan type : Progressive
Bits/(Pixel*Frame) : 0.175
Stream size : 1.18 GiB (90%)
Title : Smallville S04 E01 Crusade
Language : English
Default : Yes
Forced : No
Color range : Limited
Color primaries : BT.709
Transfer characteristics : BT.709
Matrix coefficients : BT.709
Audio #1
ID : 2
Format : AC-3
Format/Info : Audio Coding 3
Mode extension : CM (complete main)
Format settings, Endianness : Big
Muxing mode : Header stripping
Codec ID : A_AC3
Duration : 43mn 45s
Bit rate mode : Constant
Bit rate : 160 Kbps
Channel(s) : 2 channels
Channel positions : Front: L R
Sampling rate : 48.0 KHz
Compression mode : Lossy
Stream size : 50.1 MiB (4%)
Title : CTC
Language : Russian
Default : Yes
Forced : No
Audio #2
ID : 3
Format : AC-3
Format/Info : Audio Coding 3
Mode extension : CM (complete main)
Format settings, Endianness : Big
Muxing mode : Header stripping
Codec ID : A_AC3
Duration : 43mn 45s
Bit rate mode : Constant
Bit rate : 160 Kbps
Channel(s) : 2 channels
Channel positions : Front: L R
Sampling rate : 48.0 KHz
Compression mode : Lossy
Stream size : 50.1 MiB (4%)
Title : Original
Language : English
Default : No
Forced : No
01. Crusade / Крестовый поход
02. Gone / Ушедший
03. Facade / Видимость
04. Devoted / Преданный
05. Run / Бегство
06. Transference / Обмен
07. Jinx / Приносящий несчастье
08. Spell / Заклинание
09. Bound / Предел
10. Scare / Страх
11. Unsafe / Опасный
11. Pariah / Отверженный
13. Recruit / Новичок
14. Krypto / Крипто
15. Sacred / Священный
16. Lucy / Люси
17. Onyx / Оникс
18. Spirit / Душа
19. Blank / Талисман
20. Ageless / Стареющий
21. Forever / Навсегда
22. Commencement / Награждение



   Похожие торренты   Торрент   Размер 
В этой теме нет новых непрочитанных сообщений. Тайны смолвиля (4 сезон) / Smallville (Season 4) (2004-2005) DVDRip

28 | 46

7.62 ГБ

В этой теме нет новых непрочитанных сообщений. Тайны Смолвиля / Smallville [S03] (2003-2004) WEB-DL 720p | СТС

95 | 41

29.42 ГБ

В этой теме нет новых непрочитанных сообщений. Тайны Смолвиля / Smallville [S05] (2005-2006) HDDVDRip 720p | СТС, AXN Sci-Fi

193 | 22

34.53 ГБ

В этой теме нет новых непрочитанных сообщений. Тайны Смолвиля / Smallville [S04] (2004) WEB-DLRip-AVC

0 | 4

17.11 ГБ

В этой теме нет новых непрочитанных сообщений. Тайны Смолвиля / Smallville [S05] (2005) HD-DVDRip-AVC

11 | 5

17.92 ГБ

В этой теме нет новых непрочитанных сообщений. Тайны Смолвиля / Smallville [S05] (2005) DVDRip | КПК от Generalfilm

32 | 18

3.43 ГБ

В этой теме нет новых непрочитанных сообщений. Тайны смолвиля (3 сезон) / Smallville (Season 3) (2004) DVDRip

91 | 23

7.62 ГБ




Вы не можете начинать темы
Вы не можете отвечать на сообщения
Вы не можете редактировать свои сообщения
Вы не можете удалять свои сообщения
Вы не можете добавлять вложения

Перейти:  
Для Мосгорсуда, Роскомнадзора и рекламодателей: mosgorsud-torrent[собачка]yandex.ru
 Вход
ppkBB3cker v.2 © 2008-2014 @ PPK
[ Time : 0.039s | 15 Queries | GZIP : Off ]

Торрент трекер RUTOR.IN, Не можете зайти на rutor.org? Какой новый адрес рутор? Какое зеркало рутор? Не работает rutor.org и зеркала? Тогда наш торрент специально для вас. Rutor.in неофициальное зеркало rutor. В случае если у Вас заблокирован rutor или вдруг Вы не можете на него зайти, то Вы без труда сможете скачать бесплатно и без рекламы последние новинки кино, игр, сериалов и прочего у нас, на Rutor.in. Не нужно использовать прокси, чтобы зайти на рутор, достаточно воспользоваться нашим ресурсом. Все новые фильмы, игры, сериалы, книги и музыка за 2013 и 2014 годы через торрент бесплатно. Скачивайте фильмы в хорошем качестве, игры для пк, xbox, playstation без регистрации. У нас вы найдете новые Зарубежные сериалы и Русские сериалы 2013, 2014, 2015 годов. Оставайтесь с нами, качайте любимые фильмы, игры, сериалы, книги и музыку.