img image001 image001 image001 image001 image001 image001 image001 image001 image001 image001 image001 image001 image001 image001 image001

Planets Sun Sun Sun
Статистика раздачи
Автор: Nickolas3434 | Размер: 4.33 ГБ | Добавлен: 24 июл 2015
Раздают: 230    Качают: 44
Скачать торрент
Скачать торрент
Описание торрента

СообщениеДобавлено: 24 июл 2015 


Информация о фильме
Оригинальное название: Котовский
Год выхода: 2009
Жанр: Приключения, история
Выпущено: Россия, Украина
Режиссер: Станислав Назиров
В ролях: Владислав Галкин, Марина Александрова, Михаил Ефремов, Ирина Наумкина, Александр Макогон, Михаил Крылов, Иван Стебунов, Максим Лагашкин, Андрей Гусев, Александр Пашутин
О фильме: Жизнь и обстоятельства гибели красного командира Григория Ивановича Котовского до сих пор окутаны тайной. Котовский — одна из наиболее ярких фигур Октябрьской революции. Необычайная смелость, отвага и разбойничья удаль создали легенды вокруг его имени. Потомок старинного польского аристократического рода, Котовский прошел большой революционный путь и стал признанным военным командиром: шесть раз он бежал из тюрьмы, был приговорен к смертной казни и вновь бежал, чтобы стать одним из самых пламенных воинов революции. Его знаменитая конная бригада билась с врагом под Киевом и Белой Церковью, у Николаева и Одессы, и нигде не знала поражений. Одесса, 1917 год. Атамана Григория Ивановича Котовского освобождают из тюрьмы. Встречают его друзья детства, в воспоминаниях Котовского сразу всплывают годы, проведенные в училище: уличные драки, мальчишеские разборки, промысел жульничеством и первая любовь. И вот Григорий Иванович сообщает друзьям, что его отправляют на фронт воевать за свободную Россию… В ретроспективах фильма зритель увидит Григория Котовского не только как военного командира и героя гражданской войны. Способность к настоящей дружбе и любовь, противостояние зависти, чувство долга и сложный выбор — личность Котовского и его богатый внутренний мир будут раскрываться зрителю постепенно.
Файл
Качество: HDRip
Видео: XviD, ~ 1300 kбит/с, 704x400
Аудио: Русский (AC-3, 6 ch, 384 Кбит/с)
Продолжительность: 8 х ~ 00:45:00
Общее
Полное имя : Kotovskij.2009.Xvid.HDRip.by.GeneralFilmSerija.01.avi
Формат : AVI
Формат/Информация : Audio Video Interleave
Размер файла : 554 Мбайт
Продолжительность : 44 м.
Общий поток : 1730 Кбит/сек
Программа кодирования : VirtualDubMod 1.5.10.3 | www.virtualdub-fr.org || (build 2550/release)
Библиотека кодирования : VirtualDubMod build 2550/release
Видео
Идентификатор : 0
Формат : MPEG-4 Visual
Профиль формата : Advanced Simple@L5
Параметр BVOP формата : 1
Параметр QPel формата : Нет
Параметр GMC формата : Без точки перехода
Параметр матрицы формата : Выборочная
Идентификатор кодека : XVID
Идентификатор кодека/Подсказка : XviD
Продолжительность : 44 м.
Битрейт : 1337 Кбит/сек
Ширина : 704 пикселя
Высота : 400 пикселей
Соотношение сторон : 16:9
Частота кадров : 24,000 кадра/сек
Цветовое пространство : YUV
Субдискретизация насыщенности : 4:2:0
Битовая глубина : 8 бит
Тип развёртки : Прогрессивная
Метод сжатия : С потерями
Бит/(Пиксели*Кадры) : 0.198
Размер потока : 428 Мбайт (77%)
Библиотека кодирования : XviD 73
Аудио
Идентификатор : 1
Формат : AC-3
Формат/Информация : Audio Coding 3
Расширение режима : CM (complete main)
Параметр Endianness формата : Big
Идентификатор кодека : 2000
Продолжительность : 44 м.
Вид битрейта : Постоянный
Битрейт : 384 Кбит/сек
Каналы : 6 каналов
Расположение каналов : Front: L C R, Side: L R, LFE
Частота : 48,0 КГц
Метод сжатия : С потерями
Размер потока : 123 Мбайт (22%)
Выравнивание : Разделение по промежуткам
Продолжительность промежутка : 42 мс. (1,00 видеокадр)
Время предзагрузки промежутка : 500 мс.









Релиз от:
Исходник:



   Похожие торренты   Торрент   Размер 
В этой теме нет новых непрочитанных сообщений. Котовский [01-08 из 08] (2009) BDRip 1080p от nnn-55

1 | 7

13.77 ГБ

В этой теме нет новых непрочитанных сообщений. Котовский [1-8 серии из 8] (2009) DVD9

10 | 2

7.62 ГБ

В этой теме нет новых непрочитанных сообщений. Котовский [1-8] (2009) Blu-Ray (1080p) - HDClub

1 | 3

41.42 ГБ

В этой теме нет новых непрочитанных сообщений. Котовский (2009) BDRip от HQCLUB

7 | 4

5.83 ГБ

В этой теме нет новых непрочитанных сообщений. Котовский (2009) BDRip от HELLYWOOD

28 | 11

5.8 ГБ

В этой теме нет новых непрочитанных сообщений. Котовский [1-8 серии из 8] (2009) DVDRip

126 | 20

4.11 ГБ

В этой теме нет новых непрочитанных сообщений. Котовский [1-8 серии из 8] (2009) BDRip-AVC от KinoZalSat

153 | 14

7.47 ГБ




Вы не можете начинать темы
Вы не можете отвечать на сообщения
Вы не можете редактировать свои сообщения
Вы не можете удалять свои сообщения
Вы не можете добавлять вложения

Перейти:  
Для Мосгорсуда, Роскомнадзора и рекламодателей: mosgorsud-torrent[собачка]yandex.ru
 Вход
ppkBB3cker v.2 © 2008-2014 @ PPK
[ Time : 0.029s | 14 Queries | GZIP : Off ]
CGP output time : 0.035s | 5 Queries | GZIP : Off

Торрент трекер RUTOR.IN, Не можете зайти на rutor.org? Какой новый адрес рутор? Какое зеркало рутор? Не работает rutor.org и зеркала? Тогда наш торрент специально для вас. Rutor.in неофициальное зеркало rutor. В случае если у Вас заблокирован rutor или вдруг Вы не можете на него зайти, то Вы без труда сможете скачать бесплатно и без рекламы последние новинки кино, игр, сериалов и прочего у нас, на Rutor.in. Не нужно использовать прокси, чтобы зайти на рутор, достаточно воспользоваться нашим ресурсом. Все новые фильмы, игры, сериалы, книги и музыка за 2013 и 2014 годы через торрент бесплатно. Скачивайте фильмы в хорошем качестве, игры для пк, xbox, playstation без регистрации. У нас вы найдете новые Зарубежные сериалы и Русские сериалы 2013, 2014, 2015 годов. Оставайтесь с нами, качайте любимые фильмы, игры, сериалы, книги и музыку.