img image001 image001 image001 image001 image001 image001 image001 image001 image001 image001 image001 image001 image001 image001 image001

Planets Sun Sun Sun
Статистика раздачи
Автор: Nickolas3434 | Размер: 714.98 МБ | Добавлен: 26 июл 2015
Раздают: 274    Качают: 5
Скачать торрент
Скачать торрент
Описание торрента

СообщениеДобавлено: 26 июл 2015 


Год выпуска: 2015
Страна: США
Жанр: криминал, драма
Продолжительность: ~45 мин.
Перевод: Профессиональный (многоголосый закадровый) IDEAFILM
Режиссёр: Сэм Эсмейл
В ролях: Рэми Малек, Брюс Олтмен, Майкл Бушеми, Карли Чаикин, Самрат Чакрабарти, Портия Даблдэй, Маурицио Ферриньо, Майкл Гилл, Джереми С. Холм, Диллон Мэтьюз
Описание: История молодого программиста Эллиота, страдающего диссоциальным расстройством личности и решившего, что единственный приемлемый для него способ взаимодействия с людьми — это профессия хакера. Таким образом, он быстро оказывается в том самом месте, где пересекаются интересы его работодателя — фирмы, занимающейся кибербезопасностью, — и подпольных организаций, которые пытаются его завербовать с целью обрушения самых могучих американских корпораций.
Сэмпл
Качество: HDTV 720p
Контейнер: MKV
Видео: H.264, 1280x720 (16:9), 23.976 fps, 4100 kbps, 0.1 bit/pixel
Аудио: русский / MVO (IdeaFilm), AC3, 48 kHz, 2 ch, 192 kbps
Аудио 2: оригинал / AC3, 48 kHz, 6 ch, 384 kbps
Субтитры: отсутствуют
General
Unique ID : 250454343385194047242891921426045464900 (0xBC6BC080A14B259C9B8810DC7CE7F144)
Complete name : Mr.Robot.S01E05.720p.MVO.rus.mkv
Format : Matroska
Format version : Version 4 / Version 2
File size : 715 MiB
Duration : 44mn 27s
Overall bit rate : 2 249 Kbps
Encoded date : UTC 2015-07-24 01:49:35
Writing application : mkvmerge v6.0.0 ('Coming Up For Air') built on Jan 20 2013 09:52:00
Writing library : libebml v1.3.0 + libmatroska v1.4.0
Video
ID : 1
Format : AVC
Format/Info : Advanced Video Codec
Format profile : High@L4.1
Format settings, CABAC : Yes
Format settings, ReFrames : 5 frames
Codec ID : V_MPEG4/ISO/AVC
Duration : 44mn 27s
Bit rate : 1 628 Kbps
Width : 1 280 pixels
Height : 720 pixels
Display aspect ratio : 16:9
Frame rate mode : Constant
Frame rate : 23.976 fps
Color space : YUV
Chroma subsampling : 4:2:0
Bit depth : 8 bits
Scan type : Progressive
Bits/(Pixel*Frame) : 0.074
Stream size : 518 MiB (72%)
Writing library : x264 core 146 r2538 121396c
Encoding settings : opencl=1 / cabac=1 / ref=5 / deblock=1:0:0 / analyse=0x3:0x113 / me=umh / subme=8 / psy=1 / psy_rd=1.00:0.00 / mixed_ref=1 / me_range=16 / chroma_me=1 / trellis=1 / 8x8dct=1 / cqm=0 / deadzone=21,11 / fast_pskip=1 / chroma_qp_offset=-2 / threads=24 / lookahead_threads=4 / sliced_threads=0 / nr=0 / decimate=1 / interlaced=0 / bluray_compat=0 / constrained_intra=0 / bframes=3 / b_pyramid=2 / b_adapt=2 / b_bias=0 / direct=3 / weightb=1 / open_gop=0 / weightp=2 / keyint=250 / keyint_min=23 / scenecut=40 / intra_refresh=0 / rc_lookahead=50 / rc=crf / mbtree=1 / crf=18.0 / qcomp=0.60 / qpmin=0 / qpmax=69 / qpstep=4 / ip_ratio=1.40 / aq=1:1.00
Language : English
Default : Yes
Forced : No
Matrix coefficients : BT.709
Audio #1
ID : 2
Format : AC-3
Format/Info : Audio Coding 3
Mode extension : CM (complete main)
Format settings, Endianness : Big
Codec ID : A_AC3
Duration : 44mn 27s
Bit rate mode : Constant
Bit rate : 192 Kbps
Channel(s) : 2 channels
Channel positions : Front: L R
Sampling rate : 48.0 KHz
Bit depth : 16 bits
Compression mode : Lossy
Stream size : 61.1 MiB (9%)
Language : Russian
Default : Yes
Forced : No
Audio #2
ID : 3
Format : AC-3
Format/Info : Audio Coding 3
Mode extension : CM (complete main)
Format settings, Endianness : Big
Codec ID : A_AC3
Duration : 44mn 27s
Bit rate mode : Constant
Bit rate : 384 Kbps
Channel(s) : 6 channels
Channel positions : Front: L C R, Side: L R, LFE
Sampling rate : 48.0 KHz
Bit depth : 16 bits
Compression mode : Lossy
Stream size : 122 MiB (17%)
Language : English
Default : No
Forced : No




   Похожие торренты   Торрент   Размер 
В этой теме нет новых непрочитанных сообщений. Мистер Робот / Mr. Robot [02x00 из 12] (2016) WEB-DL 720p | IdeaFilm

49 | 1

962.89 МБ

В этой теме нет новых непрочитанных сообщений. Мистер Робот / Mr. Robot [01x10 из 10] (2015) WEB-DLRip | Ideafilm

470 | 448

5.83 ГБ

В этой теме нет новых непрочитанных сообщений. Мистер Робот / Mr. Robot [02x00-10 из 12] (2016) WEB-DLRip 720p | IdeaFilm

0 | 0

18.01 ГБ

В этой теме нет новых непрочитанных сообщений. Мистер Робот / Mr. Robot [03x01 из 12] (2017) WEBRip 720p | IdeaFilm

42 | 11

2.04 ГБ

В этой теме нет новых непрочитанных сообщений. Мистер Робот / Mr.Robot [01x01-08 из 10] (2015) HDTVRip , WEB-DLRip-AVC 1080p l LostFilm ,Kubik V Kube , NewStudio , BaibaKo , Ideafilm

21 | 18

20.45 ГБ

В этой теме нет новых непрочитанных сообщений. Мистер Робот / Mr. Robot [02x00-10 из 12] (2016) WEB-DLRip | IdeaFilm

0 | 0

7.83 ГБ

В этой теме нет новых непрочитанных сообщений. Мистер Робот / Mr. Robot [03x01 из 12] (2017) WEBRip | IdeaFilm

0 | 0

658.14 МБ




Вы не можете начинать темы
Вы не можете отвечать на сообщения
Вы не можете редактировать свои сообщения
Вы не можете удалять свои сообщения
Вы не можете добавлять вложения

Перейти:  
Для Мосгорсуда, Роскомнадзора и рекламодателей: mosgorsud-torrent[собачка]yandex.ru
 Вход
ppkBB3cker v.2 © 2008-2014 @ PPK
[ Time : 0.049s | 16 Queries | GZIP : Off ]

cron