img image001 image001 image001 image001 image001 image001 image001 image001 image001 image001 image001 image001 image001 image001 image001

Planets Sun Sun Sun
Статистика раздачи
Автор: Nickolas3434 | Размер: 1.05 ГБ | Добавлен: 26 июл 2015
Раздают: 25    Качают: 4
Скачать торрент
Скачать торрент
Описание торрента

СообщениеДобавлено: 26 июл 2015 


Год выпуска: 2014
Страна: США
Жанр: Фантастика, триллер, драма
Продолжительность: ~ 00:42:00
Перевод : Профессиональный многоголосый закадровый (BaibaKo)
Режиссёр: Дэниэл Эттиэс, Пэрис Барклай, Мэтт Эрл Бисли
В ролях: Холли Берри, Брэд Бейер, Горан Вишнич, Пирс Гэнон, Камрин Менхейм, Тайлер Хилтон, Серджо Харфорд, Грэйс Гаммер, Майкл О’Нил, Жанетта Арнетт и другие
Описание:
Футуристический триллер о женщине-астронавте, которая возвращается на Землю после космической экспедиции и пытается наладить отношения с семьей, но ее поступки загадочным образом изменяют ход истории всего человечества.
Качество: HDTV 720p
Контейнер: MKV
Видео: AVC, 1280x720, 16:9, ~ 2989 Кбит/с, 23.976 fps
Аудио: Русский, AC3, 48.0 KHz, 2 channels, 192 Kbps (BaibaKo)
Аудио 2: Английский, AC3, 48.0 KHz, 6 channels, 384 Kbps (Original)
General
Complete name : Extant.S02E04.720p.HDTV.MVO.rus.mkv
Format : Matroska
Format version : Version 4 / Version 2
File size : 1.05 GiB
Duration : 41mn 22s
Overall bit rate : 3 638 Kbps
Encoded date : UTC 2015-07-24 19:21:45
Writing application : mkvmerge v6.0.0 ('Coming Up For Air') built on Jan 20 2013 09:52:00
Writing library : libebml v1.3.0 + libmatroska v1.4.0
Video
ID : 1
Format : AVC
Format/Info : Advanced Video Codec
Format profile : High@L4.1
Format settings, CABAC : Yes
Format settings, ReFrames : 9 frames
Codec ID : V_MPEG4/ISO/AVC
Duration : 41mn 22s
Bit rate : 2 989 Kbps
Width : 1 280 pixels
Height : 720 pixels
Display aspect ratio : 16:9
Frame rate mode : Constant
Frame rate : 23.976 fps
Color space : YUV
Chroma subsampling : 4:2:0
Bit depth : 8 bits
Scan type : Progressive
Bits/(Pixel*Frame) : 0.135
Stream size : 885 MiB (82%)
Writing library : x264 core 146 r2538 121396c
Encoding settings : cabac=1 / ref=9 / deblock=1:-2:-2 / analyse=0x3:0x133 / me=umh / subme=10 / psy=1 / psy_rd=1.00:0.00 / mixed_ref=1 / me_range=32 / chroma_me=1 / trellis=2 / 8x8dct=1 / cqm=0 / deadzone=21,11 / fast_pskip=0 / chroma_qp_offset=-2 / threads=16 / lookahead_threads=1 / sliced_threads=0 / nr=0 / decimate=1 / interlaced=0 / bluray_compat=0 / constrained_intra=0 / bframes=5 / b_pyramid=2 / b_adapt=2 / b_bias=0 / direct=3 / weightb=1 / open_gop=0 / weightp=2 / keyint=250 / keyint_min=23 / scenecut=40 / intra_refresh=0 / rc_lookahead=60 / rc=crf / mbtree=1 / crf=18.0 / qcomp=0.60 / qpmin=0 / qpmax=69 / qpstep=4 / ip_ratio=1.40 / aq=1:1.00
Language : English
Default : Yes
Forced : No
Matrix coefficients : BT.709
Audio #1
ID : 2
Format : AC-3
Format/Info : Audio Coding 3
Mode extension : CM (complete main)
Format settings, Endianness : Big
Codec ID : A_AC3
Duration : 41mn 22s
Bit rate mode : Constant
Bit rate : 192 Kbps
Channel(s) : 2 channels
Channel positions : Front: L R
Sampling rate : 48.0 KHz
Bit depth : 16 bits
Compression mode : Lossy
Stream size : 56.8 MiB (5%)
Language : Russian
Default : Yes
Forced : No
Audio #2
ID : 3
Format : AC-3
Format/Info : Audio Coding 3
Mode extension : CM (complete main)
Format settings, Endianness : Big
Codec ID : A_AC3
Duration : 41mn 22s
Bit rate mode : Constant
Bit rate : 384 Kbps
Channel(s) : 6 channels
Channel positions : Front: L C R, Side: L R, LFE
Sampling rate : 48.0 KHz
Bit depth : 16 bits
Compression mode : Lossy
Stream size : 114 MiB (11%)
Language : English
Default : No
Forced : No




   Похожие торренты   Торрент   Размер 
В этой теме нет новых непрочитанных сообщений. За пределами / Extant [S02] (2015) WEB-DL 1080p | BaibaKo

26 | 94

21.87 ГБ

В этой теме нет новых непрочитанных сообщений. За пределами / Extant [S02] (2015) WEB-DLRip | BaibaKo

94 | 155

7.02 ГБ

В этой теме нет новых непрочитанных сообщений. За пределами / Extant [02x01-08 из 13] (2015) WEB-DLRip | BaibaKo

38 | 101

4.07 ГБ

В этой теме нет новых непрочитанных сообщений. За пределами / Extant [02х01-11 из 13] (2015) WEB-DLRip | BaibaKo

36 | 227

5.93 ГБ

В этой теме нет новых непрочитанных сообщений. За пределами / Extant [02х01-10 из 13] (2015) WEB-DL 1080p | BaibaKo

20 | 74

16.84 ГБ

В этой теме нет новых непрочитанных сообщений. За пределами / Extant [02х01-12 из 13] (2015) WEB-DLRip | BaibaKo

37 | 109

6.45 ГБ

В этой теме нет новых непрочитанных сообщений. За пределами / Extant [02х01-12 из 13] (2015) WEB-DL 1080p | BaibaKo

8 | 47

20.19 ГБ




Вы не можете начинать темы
Вы не можете отвечать на сообщения
Вы не можете редактировать свои сообщения
Вы не можете удалять свои сообщения
Вы не можете добавлять вложения

Перейти:  
Для Мосгорсуда, Роскомнадзора и рекламодателей: mosgorsud-torrent[собачка]yandex.ru
 Вход
ppkBB3cker v.2 © 2008-2014 @ PPK
[ Time : 0.124s | 16 Queries | GZIP : Off ]

Торрент трекер RUTOR.IN, Не можете зайти на rutor.org? Какой новый адрес рутор? Какое зеркало рутор? Не работает rutor.org и зеркала? Тогда наш торрент специально для вас. Rutor.in неофициальное зеркало rutor. В случае если у Вас заблокирован rutor или вдруг Вы не можете на него зайти, то Вы без труда сможете скачать бесплатно и без рекламы последние новинки кино, игр, сериалов и прочего у нас, на Rutor.in. Не нужно использовать прокси, чтобы зайти на рутор, достаточно воспользоваться нашим ресурсом. Все новые фильмы, игры, сериалы, книги и музыка за 2013 и 2014 годы через торрент бесплатно. Скачивайте фильмы в хорошем качестве, игры для пк, xbox, playstation без регистрации. У нас вы найдете новые Зарубежные сериалы и Русские сериалы 2013, 2014, 2015 годов. Оставайтесь с нами, качайте любимые фильмы, игры, сериалы, книги и музыку.