img image001 image001 image001 image001 image001 image001 image001 image001 image001 image001 image001 image001 image001 image001 image001

Planets Sun Sun Sun
Статистика раздачи
Автор: Nickolas3434 | Размер: 10.98 ГБ | Добавлен: 26 июл 2015
Раздают: 109    Качают: 450
Скачать торрент
Скачать торрент
Описание торрента

СообщениеДобавлено: 26 июл 2015 


Информация о фильме
Название: Ганнибал
Оригинальное название: Hannibal
Год выхода: 2015
Жанр: Детектив, драма, криминал, триллер
Режиссер: Гильермо Наварро, Майкл Раймер, Дэвид Слэйд
В ролях: Мадс Миккельсен, Хью Дэнси, Каролин Давернас, Джиллиан Андерсон, Лоренс Фишбёрн и другие
О фильме:
Сериал «Ганнибал» основан на истории одного из самых загадочных и скандальных героев книг Томаса Харриса – доктора Ганнибала Лектера. Этот стилизованный триллер рассказывает о развитии взаимоотношений Лектера и сотрудника ФБР Уилла Грэма, двух гениальных личностей: игры разумов добра и зла, мощи ментального воздействия против уникального таланта эмпатии. Уилл Грэм — одаренный профайлер, который вместе с ФБР разыскивает серийного убийцу. Уникальный способ мышления Грэма дает ему удивительную способность глубоко проникаться чувствами другого человека, даже психопата. Он может понять, что ими движет. Но когда ум преследуемого убийцы оказывается слишком сложным, он прибегает к помощи доктора Лектера, одного из ведущих психиатрических умов в стране. Кинематографичные съемки и неординарная фантазия создателей позволили любителям жанра по достоинству оценить сериал. Первые два сезона вошли в многочисленные Top-10 по всему миру: лучшие сериалы, лучшие ТВ-шоу, лучший актерский состав и др., транслировались на телеканалах в 80 странах, на 18 языках мира, их посмотрели несколько десятков миллионов зрителей

Страна: США
Продолжительность: 00:42:00
Перевод: Профессиональный (многоголосый закадровый) студия Jaskier
Перевод: MartinaG (1 серия), Алексей Матвеев
Роли озвучивали: Денис Строев, Сергей Пономарёв, Андрей Мишутин, Рустам Шайхиев, Наталья Казначеева, Таисия Тришина
Файл
Кодек: H.264
Качество: WEB-DL 720p (8-ая HDTV)
Видео: AVC, 1280x718 (16:9), 23.976 fps, ~3900kbps, ~0.181 bit/pixel, 8-ая: AVC, 1280x720 (16:9), 23.976 fps, ~2200kbps, ~0.087 bit/pixel
Аудио 1 (русская дорожка): Dolby AC3 48000Hz 5.1 384Kbps, 8 серия: Dolby AC3 48000Hz stereo 192Kbps
Аудио 2 (оригинал): Dolby AC3 48000Hz 5.1 384Kbps
Семпл




General
Unique ID : 212908852512814980781369602735892959089 (0xA02CC0E1F718857495E23903BB7D8F71)
Complete name : V:HDHannibal. 3 season (WEB-DL l 720p l Jaskier)Hannibal.S03E07.720p.HDTV.AC3.H.264-Jaskier.mkv
Format : Matroska
Format version : Version 1
File size : 783 MiB
Duration : 42mn 46s
Overall bit rate : 2 559 Kbps
Encoded date : UTC 2015-07-18 00:09:20
Writing application : mkvmerge v2.3.0 ('Freak U') built on Sep 8 2008 18:32:16
Writing library : libebml v0.7.7 + libmatroska v0.8.1
Video
ID : 1
Format : AVC
Format/Info : Advanced Video Codec
Format profile : High@L4.1
Format settings, CABAC : Yes
Format settings, ReFrames : 5 frames
Codec ID : V_MPEG4/ISO/AVC
Duration : 42mn 46s
Bit rate : 1 932 Kbps
Width : 1 280 pixels
Height : 720 pixels
Display aspect ratio : 16:9
Frame rate : 23.976 fps
Color space : YUV
Chroma subsampling : 4:2:0
Bit depth : 8 bits
Scan type : Progressive
Bits/(Pixel*Frame) : 0.087
Stream size : 591 MiB (75%)
Writing library : x264 core 146 r2538 121396c
Encoding settings : cabac=1 / ref=5 / deblock=1:0:0 / analyse=0x3:0x113 / me=umh / subme=8 / psy=1 / psy_rd=1.00:0.00 / mixed_ref=1 / me_range=16 / chroma_me=1 / trellis=1 / 8x8dct=1 / cqm=0 / deadzone=21,11 / fast_pskip=1 / chroma_qp_offset=-2 / threads=12 / lookahead_threads=2 / sliced_threads=0 / nr=0 / decimate=1 / interlaced=0 / bluray_compat=0 / constrained_intra=0 / bframes=3 / b_pyramid=2 / b_adapt=2 / b_bias=0 / direct=3 / weightb=1 / open_gop=0 / weightp=2 / keyint=250 / keyint_min=23 / scenecut=40 / intra_refresh=0 / rc_lookahead=50 / rc=crf / mbtree=1 / crf=18.0 / qcomp=0.60 / qpmin=0 / qpmax=69 / qpstep=4 / ip_ratio=1.40 / aq=1:1.00
Language : English
Default : Yes
Forced : No
Matrix coefficients : BT.709-5, BT.1361, IEC 61966-2-4 709, SMPTE RP177
Audio #1
ID : 2
Format : AC-3
Format/Info : Audio Coding 3
Mode extension : CM (complete main)
Format settings, Endianness : Big
Codec ID : A_AC3
Duration : 42mn 46s
Bit rate mode : Constant
Bit rate : 192 Kbps
Channel(s) : 2 channels
Channel positions : Front: L R
Sampling rate : 48.0 KHz
Bit depth : 16 bits
Compression mode : Lossy
Stream size : 58.7 MiB (8%)
Language : Russian
Default : Yes
Forced : No
Audio #2
ID : 3
Format : AC-3
Format/Info : Audio Coding 3
Mode extension : CM (complete main)
Format settings, Endianness : Big
Codec ID : A_AC3
Duration : 42mn 46s
Bit rate mode : Constant
Bit rate : 384 Kbps
Channel(s) : 6 channels
Channel positions : Front: L C R, Side: L R, LFE
Sampling rate : 48.0 KHz
Bit depth : 16 bits
Compression mode : Lossy
Stream size : 117 MiB (15%)
Language : English
Default : No
Forced : No



   Похожие торренты   Торрент   Размер 
В этой теме нет новых непрочитанных сообщений. Ганнибал / Hannibal [03x01-12 из 13] (2015) WEB-DL 720p | Jaskier

58 | 146

16.69 ГБ

В этой теме нет новых непрочитанных сообщений. Ганнибал / Hannibal [03x01-03 из 13] (2015) WEB-DL 720p | Jaskier

75 | 133

4.33 ГБ

В этой теме нет новых непрочитанных сообщений. Ганнибал / Hannibal [03x01-07 из 13] (2015) WEB-DL 720p | Jaskier

114 | 333

9.45 ГБ

В этой теме нет новых непрочитанных сообщений. Ганнибал / Hannibal [03x01-02 из 13] (2015) WEB-DL 720p | Jaskier

157 | 126

2.36 ГБ

В этой теме нет новых непрочитанных сообщений. Ганнибал / Hannibal [03x01-04 из 13] (2015) WEB-DL 720p | Jaskier

51 | 158

5.74 ГБ

В этой теме нет новых непрочитанных сообщений. Ганнибал / Hannibal [03x01-11 из 13] (2015) WEB-DL 720p | Jaskier

164 | 244

15.27 ГБ

В этой теме нет новых непрочитанных сообщений. Ганнибал / Hannibal [03x01-09 из 13] (2015) WEB-DL 720p | Jaskier

22 | 50

13.02 ГБ




Вы не можете начинать темы
Вы не можете отвечать на сообщения
Вы не можете редактировать свои сообщения
Вы не можете удалять свои сообщения
Вы не можете добавлять вложения

Перейти:  
Для Мосгорсуда, Роскомнадзора и рекламодателей: mosgorsud-torrent[собачка]yandex.ru
 Вход
ppkBB3cker v.2 © 2008-2014 @ PPK
[ Time : 0.527s | 16 Queries | GZIP : Off ]

Торрент трекер RUTOR.IN, Не можете зайти на rutor.org? Какой новый адрес рутор? Какое зеркало рутор? Не работает rutor.org и зеркала? Тогда наш торрент специально для вас. Rutor.in неофициальное зеркало rutor. В случае если у Вас заблокирован rutor или вдруг Вы не можете на него зайти, то Вы без труда сможете скачать бесплатно и без рекламы последние новинки кино, игр, сериалов и прочего у нас, на Rutor.in. Не нужно использовать прокси, чтобы зайти на рутор, достаточно воспользоваться нашим ресурсом. Все новые фильмы, игры, сериалы, книги и музыка за 2013 и 2014 годы через торрент бесплатно. Скачивайте фильмы в хорошем качестве, игры для пк, xbox, playstation без регистрации. У нас вы найдете новые Зарубежные сериалы и Русские сериалы 2013, 2014, 2015 годов. Оставайтесь с нами, качайте любимые фильмы, игры, сериалы, книги и музыку.
cron