img image001 image001 image001 image001 image001 image001 image001 image001 image001 image001 image001 image001 image001 image001 image001

Planets Sun Sun Sun
Статистика раздачи
Автор: Nickolas3434 | Размер: 17.86 ГБ | Добавлен: 27 июл 2015
Раздают: 99    Качают: 38
Скачать торрент
Скачать торрент
Описание торрента

СообщениеДобавлено: 27 июл 2015 




Информация о фильме
Жанр: драма, история
Режиссер: Василий Ордынский
Актеры: Юрий Соломин, Ирина Алфёрова, Светлана Пенкина, Михаил Ножкин, Вячеслав Езепов, Михаил Козаков, Анатолий Кацинский, Александр Пашутин, Инна Гулая, Валерий Погорельцев, Лаймонас Норейка, Владимир Комратов, Георгий Бурков, Александр Лазарев (ст.), Сергей Никоненко, Вера Комисарова, Николай Ерёменко (мл.), Роман Хомятов, Пётр Любешкин, Лев Дуров и др.
Описание:
Телесериал по роману А.Толстого.
Петербург, 1914 год. Предреволюционное буржуазное общество, декаденствующая интеллигенция — приметы этого смутного времени. В центре внимания — сестры Булавины — Даша и Ката, их личная жизнь, любовь, увлечения, сердечные драмы.

Производство: СССР, Мосфильм
Продолжительность: ~ 01:20:00 серия
Файл
Качество видео: SATRip-AVC
Видео: AVC/H.264, 704х528, ~1986 Кбит/сек
Аудио: AC3, 2 ch, 192 Кбит/сек


Общее
Уникальный идентификатор : 237114349007300778753614878280949142663 (0xB2628FFFFB0B729F96FCCB101F779487)
Полное имя : F:Хождение по мукам1 серия.mkv
Формат : Matroska
Версия формата : Version 2
Размер файла : 1,23 Гбайт
Продолжительность : 1 ч. 19 м.
Общий поток : 2222 Кбит/сек
Дата кодирования : UTC 2015-07-18 20:39:31
Программа кодирования : mkvmerge v6.1.0 ('Old Devil') built on Mar 4 2013 09:10:42
Библиотека кодирования : libebml v1.3.0 + libmatroska v1.4.0
Видео
Идентификатор : 1
Формат : AVC
Формат/Информация : Advanced Video Codec
Профиль формата : High@L4.1
Параметр CABAC формата : Да
Параметр ReFrames формата : 9 кадров
Идентификатор кодека : V_MPEG4/ISO/AVC
Продолжительность : 1 ч. 19 м.
Битрейт : 1986 Кбит/сек
Ширина : 704 пикселя
Высота : 528 пикселей
Соотношение сторон : 4:3
Режим частоты кадров : Постоянный
Частота кадров : 25,000 кадров/сек
Цветовое пространство : YUV
Субдискретизация насыщенности : 4:2:0
Битовая глубина : 8 бит
Тип развёртки : Прогрессивная
Бит/(Пиксели*Кадры) : 0.214
Размер потока : 1,10 Гбайт (89%)
Библиотека кодирования : x264 core 130 r2273 b3065e6
Настройки программы : cabac=1 / ref=9 / deblock=1:-3:-3 / analyse=0x3:0x133 / me=umh / subme=9 / psy=1 / psy_rd=1.00:0.15 / mixed_ref=1 / me_range=32 / chroma_me=0 / trellis=2 / 8x8dct=1 / cqm=0 / deadzone=21,11 / fast_pskip=0 / chroma_qp_offset=-3 / threads=2 / lookahead_threads=4 / sliced_threads=0 / nr=0 / decimate=1 / interlaced=0 / bluray_compat=0 / constrained_intra=0 / bframes=9 / b_pyramid=2 / b_adapt=2 / b_bias=0 / direct=1 / weightb=1 / open_gop=0 / weightp=2 / keyint=250 / keyint_min=25 / scenecut=40 / intra_refresh=0 / rc_lookahead=60 / rc=crf / mbtree=1 / crf=18.0 / qcomp=0.60 / qpmin=0 / qpmax=69 / qpstep=4 / ip_ratio=1.40 / aq=1:1.00
Default : Да
Forced : Нет
Цветовой диапазон : Limited
Основные цвета : BT.601 PAL
Характеристики трансфера : BT.470 System B, BT.470 System G
Коэффициенты матрицы : BT.601
Аудио
Идентификатор : 2
Формат : AC-3
Формат/Информация : Audio Coding 3
Расширение режима : CM (complete main)
Параметр Endianness формата : Big
Идентификатор кодека : A_AC3
Продолжительность : 1 ч. 19 м.
Вид битрейта : Постоянный
Битрейт : 192 Кбит/сек
Каналы : 2 канала
Расположение каналов : Front: L R
Частота : 48,0 КГц
Метод сжатия : С потерями
Размер потока : 109 Мбайт (9%)
Default : Да
Forced : Нет







   Похожие торренты   Торрент   Размер 
В этой теме нет новых непрочитанных сообщений. Хождение по мукам [01-13 из 13] (1977) SATRip-AVC от ExKinoRay

75 | 32

16.02 ГБ

В этой теме нет новых непрочитанных сообщений. Хождение по мукам [13 серий] (1977) DVDRip

652 | 186

8.9 ГБ

В этой теме нет новых непрочитанных сообщений. Хождение по мукам. Трилогия (Сестры. Восемнадцатый год. Хмурое утро) (1957-1959) SATRip

73 | 12

4.01 ГБ

В этой теме нет новых непрочитанных сообщений. Хождение по мукам. Восемнадцатый год (1958) DVDRip от KinoZalSat

6 | 3

1.36 ГБ

В этой теме нет новых непрочитанных сообщений. Хождение по мукам. Сёстры (1957) DVDRip от KinoZalSat

10 | 8

1.36 ГБ

В этой теме нет новых непрочитанных сообщений. Толстая Наталья - Любимая или любовница. Хождение по мукам (2009) RTF, FB2, PDF, DOC

50 | 93

14.61 МБ

В этой теме нет новых непрочитанных сообщений. Хождение по мукам. Трилогия. (1957-1959) DVDRip-AVC от ExKinoRay

171 | 17

4.23 ГБ




Вы не можете начинать темы
Вы не можете отвечать на сообщения
Вы не можете редактировать свои сообщения
Вы не можете удалять свои сообщения
Вы не можете добавлять вложения

Перейти:  
Для Мосгорсуда, Роскомнадзора и рекламодателей: mosgorsud-torrent[собачка]yandex.ru
 Вход
ppkBB3cker v.2 © 2008-2014 @ PPK
[ Time : 0.032s | 16 Queries | GZIP : Off ]

Торрент трекер RUTOR.IN, Не можете зайти на rutor.org? Какой новый адрес рутор? Какое зеркало рутор? Не работает rutor.org и зеркала? Тогда наш торрент специально для вас. Rutor.in неофициальное зеркало rutor. В случае если у Вас заблокирован rutor или вдруг Вы не можете на него зайти, то Вы без труда сможете скачать бесплатно и без рекламы последние новинки кино, игр, сериалов и прочего у нас, на Rutor.in. Не нужно использовать прокси, чтобы зайти на рутор, достаточно воспользоваться нашим ресурсом. Все новые фильмы, игры, сериалы, книги и музыка за 2013 и 2014 годы через торрент бесплатно. Скачивайте фильмы в хорошем качестве, игры для пк, xbox, playstation без регистрации. У нас вы найдете новые Зарубежные сериалы и Русские сериалы 2013, 2014, 2015 годов. Оставайтесь с нами, качайте любимые фильмы, игры, сериалы, книги и музыку.