img image001 image001 image001 image001 image001 image001 image001 image001 image001 image001 image001 image001 image001 image001 image001

Planets Sun Sun Sun
Статистика раздачи
Автор: Nickolas3434 | Размер: 1.45 ГБ | Добавлен: 27 июл 2015
Раздают: 52    Качают: 9
Скачать торрент
Скачать торрент
Описание торрента

СообщениеДобавлено: 27 июл 2015 


Информация о фильме
Название: Солдаты. Новый год, твою дивизию
Год выхода: 2007
Жанр: Сериал, комедия, приключения
Режиссёр: Влад Николаев, Федор Красноперов
В ролях: Борис Щербаков, Роман Мадянов, Игнат Акрачков, Мария Аронова, Ольга Фадеева, Анна Ардова, Наталья Гудкова, Юрий Сафаров, Василий Шевелилкин, Виталий Абдулов, Антон Эльдаров, Павел Галич, Максим Мальцев, Вячеслав Гришечкин, Алексей Ошурков, Иван Моховиков, Анатолий Кощеев и другие
О фильме: Сюжет этой необычаной истории начинается в части. Всех будит сигнал боевой тревоги, по которому солдаты и офицеры мгновенно просыпаются и отправляются спасать Родину. Но никто не знает, куда именно. И вот, по заснеженному лесу, в кромешной темноте среди вековых елей, наши герои едут в "шишиге! на спецзадание... Что же за спецзадание может быть в Новогоднюю ночь, недоумевают они? А тут оказывается, что впопыхах забыли прапорщика Данилыча, рядового Погосяна и медсестру Дашу. И эти трое, решив догнать уехавших, пытаются добираться до места самостоятельно и теряются в ночном лесу... Чем же закончится ето приключение, ведь до Нового года остается совсем мало времени???
Доп. информация: Для несмотревших или пересматривающих - смотреть между сериалами "Солдаты-14" и "Солдаты-15"

Страна: Россия
Студия: продюссерский центр ЛЕАН-М
Продолжительность: 2 x 00:44:00
Перевод: Не требуется (оригинальный)
Файл
Формат: avi
Качество: DVDRip (DVD5)
Видео: XviD, 688х528, 25fps, 2189kbps
Аудио: AC3 Dolby Digital, 2ch, 48000Hz, 192kbps

General
Complete name : S.14,5.02.2007.O.DVDRip.700.MediaClub.CurHaJI.avi
Format : AVI
Format/Info : Audio Video Interleave
File size : 748 MiB
Duration : 43mn 43s
Overall bit rate : 2 391 Kbps
Movie name : S.14,5.02.2007.O.DVDRip.700.MediaClub.CurHaJI
Writing application : VirtualDubMod 1.5.10.3 | www.virtualdub-fr.org || (build 2550/release)
Writing library : VirtualDub build 35491/release
Video
ID : 0
Format : MPEG-4 Visual
Format profile : Advanced Simple@L5
Format settings, BVOP : 2
Format settings, QPel : No
Format settings, GMC : No warppoints
Format settings, Matrix : Custom
Codec ID : XVID
Codec ID/Hint : XviD
Duration : 43mn 43s
Bit rate : 2 189 Kbps
Width : 688 pixels
Height : 528 pixels
Display aspect ratio : 4:3
Frame rate : 25.000 fps
Color space : YUV
Chroma subsampling : 4:2:0
Bit depth : 8 bits
Scan type : Progressive
Compression mode : Lossy
Bits/(Pixel*Frame) : 0.241
Stream size : 685 MiB (92%)
Writing library : XviD 64
Audio
ID : 1
Format : AC-3
Format/Info : Audio Coding 3
Mode extension : CM (complete main)
Format settings, Endianness : Big
Codec ID : 2000
Duration : 43mn 43s
Bit rate mode : Constant
Bit rate : 192 Kbps
Channel(s) : 2 channels
Channel positions : Front: L R
Sampling rate : 48.0 KHz
Bit depth : 16 bits
Compression mode : Lossy
Delay relative to video : 8ms
Stream size : 60.1 MiB (8%)
Alignment : Split accross interleaves
Interleave, duration : 40 ms (1.00 video frame)
Interleave, preload duration : 500 ms


Релиз от:



   Похожие торренты   Торрент   Размер 
В этой теме нет новых непрочитанных сообщений. Солдаты. Новый год, твою дивизию (2008) IPTVRip

56 | 4

1.37 ГБ

В этой теме нет новых непрочитанных сообщений. Солдаты [S12] (2007) DVDRip

53 | 25

20.55 ГБ

В этой теме нет новых непрочитанных сообщений. Солдаты [S11] (2007) DVDRip

125 | 27

4.57 ГБ

В этой теме нет новых непрочитанных сообщений. Аты-баты, шли солдаты... (1976) DVDRip от MediaClub | КПК

48 | 8

370.56 МБ

В этой теме нет новых непрочитанных сообщений. Универсальные Солдаты / Universal Soldiers (2007) DVDRip

0 | 2

1.37 ГБ

В этой теме нет новых непрочитанных сообщений. Солдаты [S13] (2007) SATRip

68 | 55

21.86 ГБ

В этой теме нет новых непрочитанных сообщений. Солдаты [S12] (2007) SATRip

94 | 34

17.09 ГБ




Вы не можете начинать темы
Вы не можете отвечать на сообщения
Вы не можете редактировать свои сообщения
Вы не можете удалять свои сообщения
Вы не можете добавлять вложения

Перейти:  
Для Мосгорсуда, Роскомнадзора и рекламодателей: mosgorsud-torrent[собачка]yandex.ru
 Вход
ppkBB3cker v.2 © 2008-2014 @ PPK
[ Time : 0.078s | 16 Queries | GZIP : Off ]

Торрент трекер RUTOR.IN, Не можете зайти на rutor.org? Какой новый адрес рутор? Какое зеркало рутор? Не работает rutor.org и зеркала? Тогда наш торрент специально для вас. Rutor.in неофициальное зеркало rutor. В случае если у Вас заблокирован rutor или вдруг Вы не можете на него зайти, то Вы без труда сможете скачать бесплатно и без рекламы последние новинки кино, игр, сериалов и прочего у нас, на Rutor.in. Не нужно использовать прокси, чтобы зайти на рутор, достаточно воспользоваться нашим ресурсом. Все новые фильмы, игры, сериалы, книги и музыка за 2013 и 2014 годы через торрент бесплатно. Скачивайте фильмы в хорошем качестве, игры для пк, xbox, playstation без регистрации. У нас вы найдете новые Зарубежные сериалы и Русские сериалы 2013, 2014, 2015 годов. Оставайтесь с нами, качайте любимые фильмы, игры, сериалы, книги и музыку.
cron