img image001 image001 image001 image001 image001 image001 image001 image001 image001 image001 image001 image001 image001 image001 image001

Planets Sun Sun Sun
Статистика раздачи
Автор: Nickolas3434 | Размер: 5 ГБ | Добавлен: 30 июл 2015
Раздают: 295    Качают: 13
Скачать торрент
Скачать торрент
Описание торрента

СообщениеДобавлено: 30 июл 2015 


Страна: СССР / Студия Горького, Гостелерадио
Жанр: фантастика, триллер, драма, мелодрама, приключения, семейный
Год выпуска: 1984
Продолжительность: 01:03:30 / серия
Перевод: Не требуется
Cубтитры: русские от RUSCICO, русские от Твиттера, английские
Оригинальная аудиодорожка: русский
Режиссер: Павел Арсенов
В ролях: Наталья Гусева, Алексей Фомкин, Илья Наумов, Вячеслав Невинный, Михаил Кононов, Марьяна (Марианна) Ионесян, Елена Метелкина, Евгений Герасимов, Владимир Носик, Юрий Григорьев, Игорь Ясулович, Георгий Бурков, Валентина Талызина, Мария Стерникова, Людмила Аринина, Татьяна Божок, Екатерина Васильева, Антон Суховерко, Семён Бузган, Алексей Муравьёв, Екатерина Авербах, Елена Коляскина, Мария Баукина, Наталья Шанаева, Вячеслав Баранов, Наталья Варлей, Андрей Градов, Елена Цыплакова, Борис Щербаков, Рубен Симонов
Роли дублировали: Татьяна Дасковская, Михаил Кокшенов
Описание: 13 апреля 1984 года, в пятницу, ученик 6-го «Б» класса 20-й московской школы Коля Герасимов, отправившись после уроков в магазин за кефиром, встречает на оживлённой улице друга и одноклассника Фиму Королёва, который, в свою очередь, увлекает его слежкой за таинственной незнакомкой. Выслеживая её, ребята забираются в старый заброшенный двухэтажный дом, но незнакомки там не оказывается. В подвале, в потайной комнате, вход в которую замаскирован под обычный шкаф и закрыт подвижной кирпичной стеной, Коля обнаруживает машину времени. Борьба с космическими пиратами, захватывающее путешествие во времени, знакомство с роботом Вертером, говорящим козлом и девочкой из будущего Алисой Селезневой - вот к чему привел Колю обычный поход за кефиром. Фильм поставлен по мотивам фантастического романа Кира Булычева «Сто лет тому вперед».


Качество: DVDRip / 2 х DVD9 R5 - полная реставрация изображения и звука от RUSCICO.
Формат: AVI
Видео: 720x544 (4:3), 25.000 fps, XviD ~ 1800 kbps avg, 0.184 bit/pixel
Аудио: 48 kHz, Dolby AC3, 6 ch, 448 kbps
Формат субтитров: SoftSub (srt)
О релизе: Я бы скорее всего не взялся за эту работу, если бы на дисках не было русских субтитров, я даже включил в раздачу двое русских субтитров, от RUSCICO и от Твиттера . Наши издатели фильмов практически никогда не думают о глухих людях, поэтому те и смотрят в основном не наши фильмы. В данном случае большой респект издателю!!!
Раздача от:
General
Format : AVI
Format/Info : Audio Video Interleave
File size : 1 022 MiB
Duration : 1h 3mn
Overall bit rate : 2 256 Kbps
Writing application : VirtualDubMod 1.5.10.3 | www.virtualdub-fr.org || (build 2550/release)
Writing library : VirtualDubMod build 2550/release
Video
ID : 0
Format : MPEG-4 Visual
Format profile : Advanced Simple@L5
Format settings, BVOP : 1
Format settings, QPel : No
Format settings, GMC : No warppoints
Format settings, Matrix : Custom
Codec ID : XVID
Codec ID/Hint : XviD
Duration : 1h 3mn
Bit rate : 1 798 Kbps
Width : 720 pixels
Height : 544 pixels
Display aspect ratio : 4:3
Frame rate : 25.000 fps
Color space : YUV
Chroma subsampling : 4:2:0
Bit depth : 8 bits
Scan type : Progressive
Compression mode : Lossy
Bits/(Pixel*Frame) : 0.184
Stream size : 815 MiB (80%)
Writing library : XviD 73
Audio
ID : 1
Format : AC-3
Format/Info : Audio Coding 3
Mode extension : CM (complete main)
Format settings, Endianness : Big
Codec ID : 2000
Duration : 1h 3mn
Bit rate mode : Constant
Bit rate : 448 Kbps
Channel(s) : 6 channels
Channel positions : Front: L C R, Side: L R, LFE
Sampling rate : 48.0 KHz
Bit depth : 16 bits
Compression mode : Lossy
Stream size : 203 MiB (20%)
Alignment : Split accross interleaves
Interleave, duration : 40 ms (1.00 video frame)
Interleave, preload duration : 500 ms



/torrent/86561/gostja-iz-buduwego-1984-dvdrip
Видео: http://screenshotcomparison.com/comparison/136747 это сравнение первых серий релизов. Особенного отличия нет, просто картинка у меня помягче и кое-где почётче. Но в том релизе нет никаких субтитров!



   Похожие торренты   Торрент   Размер 
В этой теме нет новых непрочитанных сообщений. Гостья из будущего [01-05 из 05] (1984) DVDRip-AVC от New-Team

152 | 33

5 ГБ

В этой теме нет новых непрочитанных сообщений. Гостья из будущего (1984) DVDRip

193 | 11

4.38 ГБ

В этой теме нет новых непрочитанных сообщений. Гостья из будущего (1984) DVDRip

64 | 6

5.43 ГБ

В этой теме нет новых непрочитанных сообщений. Гостья из будущего (1984) DVDRip

918 | 27

1.46 ГБ

В этой теме нет новых непрочитанных сообщений. Гостья из будущего (1984) DVDRip

45 | 4

5.32 ГБ

В этой теме нет новых непрочитанных сообщений. Гостья из будущего (1984) DVDRip-AVC

580 | 17

3.8 ГБ

В этой теме нет новых непрочитанных сообщений. Гостья из будущего (1984) DVDRip от R.G.RealMT | КПК

322 | 77

1.06 ГБ




Вы не можете начинать темы
Вы не можете отвечать на сообщения
Вы не можете редактировать свои сообщения
Вы не можете удалять свои сообщения
Вы не можете добавлять вложения

Перейти:  
Для Мосгорсуда, Роскомнадзора и рекламодателей: mosgorsud-torrent[собачка]yandex.ru
 Вход
ppkBB3cker v.2 © 2008-2014 @ PPK
[ Time : 0.032s | 15 Queries | GZIP : On ]

Торрент трекер RUTOR.IN, Не можете зайти на rutor.org? Какой новый адрес рутор? Какое зеркало рутор? Не работает rutor.org и зеркала? Тогда наш торрент специально для вас. Rutor.in неофициальное зеркало rutor. В случае если у Вас заблокирован rutor или вдруг Вы не можете на него зайти, то Вы без труда сможете скачать бесплатно и без рекламы последние новинки кино, игр, сериалов и прочего у нас, на Rutor.in. Не нужно использовать прокси, чтобы зайти на рутор, достаточно воспользоваться нашим ресурсом. Все новые фильмы, игры, сериалы, книги и музыка за 2013 и 2014 годы через торрент бесплатно. Скачивайте фильмы в хорошем качестве, игры для пк, xbox, playstation без регистрации. У нас вы найдете новые Зарубежные сериалы и Русские сериалы 2013, 2014, 2015 годов. Оставайтесь с нами, качайте любимые фильмы, игры, сериалы, книги и музыку.