img image001 image001 image001 image001 image001 image001 image001 image001 image001 image001 image001 image001 image001 image001 image001

Planets Sun Sun Sun
Статистика раздачи
Автор: Nickolas3434 | Размер: 8.72 ГБ | Добавлен: 30 июл 2015
Раздают: 715    Качают: 445
Скачать торрент
Скачать торрент
Описание торрента

СообщениеДобавлено: 30 июл 2015 


Информация о фильме
Название: Остров ненужных людей
Год выхода: 2011
Жанр: драма, приключения, сериал
Режиссер: Эдуард Парри
В ролях: Дмитрий Ульянов, Эльвира Болгова, Нелли Пшенная, Александр Панкратов-Черный, Юлия Силаева, Александр Робак, Павел Трубинер, Константин Милованов, Галина Звягинцева, Екатерина Стулова, Людмила Степченкова, Наталья Васько, Людмила Загорская, Максим Лагашкин, Георгий Пицхелаури, Всеволод Хованский-Померанцев, Алла Мартынюк, Дмитрий Суржиков, Сергей Калантай, Заза Чантурия, Равшана Куркова, Андрей Харитонов, Сергей Чирков, Игорь Воробьев, Анатолий Зиновенко, Виктория Токманенко, Игорь Писный, Валентин Терехов
О фильме: Группа туристов из тринадцати человек, включая Лизу и Андрея, прилетает в азиатскую страну, но вместо экзотического путешествия их ожидает суровое испытание. Потерпев кораблекрушение, они спасаются на необитаемом острове. Несчастным предстоит выживать. Каждый использует свои навыки, чтобы занять нишу в новом социуме. Находит её и Лиза. Начитавшись детективов, она начинает собственное расследование обстоятельств, при которых их пестрая компания оказалась на острове и заставляет всех вспомнить своё прошлое. Лиза обнаруживает странную закономерность: все они когда-то были связаны между собой. Кто-то узнает родственника, кто-то - коллегу либо конкурента, которому мешал. И только Андрей уклоняется от расспросов жены - в своем плане по избавлению от нее он не учел, что поправки в их дальнейшую судьбу внесет не он, а Высшие силы...
Страна: Россия, Украина
Продолжительность: 24 х ~ 00:46:00
Язык: Русский
Файл
Кодек: XviD
Качество: HDTVRip
Видео: PAL 16:9 (656x368), ~1000 Kbps
Звук: MP3, 48000 Hz, 128 Kbps
Общее
Полное имя : Ostrov.Nenuzhnyh.Ljudej.2011.XviD.HDTVRip.by.GeneralFilmserija.01.avi
Формат : AVI
Формат/Информация : Audio Video Interleave
Размер файла : 372 Мбайт
Продолжительность : 43 м.
Общий поток : 1199 Кбит/сек
Программа кодирования : VirtualDubMod 1.5.10.3 | www.virtualdub-fr.org || (build 2550/release)
Библиотека кодирования : VirtualDubMod build 2550/release
Видео
Идентификатор : 0
Формат : MPEG-4 Visual
Профиль формата : Advanced Simple@L5
Параметр BVOP формата : 1
Параметр QPel формата : Нет
Параметр GMC формата : Без точки перехода
Параметр матрицы формата : Выборочная
Идентификатор кодека : XVID
Идентификатор кодека/Подсказка : XviD
Продолжительность : 43 м.
Битрейт : 1061 Кбит/сек
Ширина : 656 пикселей
Высота : 368 пикселей
Соотношение сторон : 16:9
Частота кадров : 25,000 кадров/сек
Цветовое пространство : YUV
Субдискретизация насыщенности : 4:2:0
Битовая глубина : 8 бит
Тип развёртки : Прогрессивная
Метод сжатия : С потерями
Бит/(Пиксели*Кадры) : 0.176
Размер потока : 329 Мбайт (89%)
Библиотека кодирования : XviD 73
Аудио
Идентификатор : 1
Формат : MPEG Audio
Версия формата : Version 1
Профиль формата : Layer 3
Идентификатор кодека : 55
Идентификатор кодека/Подсказка : MP3
Продолжительность : 43 м.
Вид битрейта : Постоянный
Битрейт : 128 Кбит/сек
Каналы : 2 канала
Частота : 48,0 КГц
Метод сжатия : С потерями
Размер потока : 39,7 Мбайт (11%)
Выравнивание : Соединение по промежуткам
Продолжительность промежутка : 40 мс. (1,00 видеокадр)
Время предзагрузки промежутка : 504 мс.
Библиотека кодирования : LAME3.99r
Настройки программы : -m s -V 4 -q 0 -lowpass 17 -b 128








Релиз от:



   Похожие торренты   Торрент   Размер 
В этой теме нет новых непрочитанных сообщений. Остров ненужных людей [01-24 из 24] (2011) DVDRip | КПК от Generalfilm

345 | 93

3.58 ГБ

В этой теме нет новых непрочитанных сообщений. Остров ненужных людей [S01] (2011) HDTVRip-AVC

255 | 173

13.06 ГБ

В этой теме нет новых непрочитанных сообщений. Остров ненужных людей [01-24 из 24] (2011) 4хDVD5

18 | 16

17.06 ГБ

В этой теме нет новых непрочитанных сообщений. Остров ненужных людей [01-24 из 24] (2011) HDTV 1080i

482 | 76

63.07 ГБ

В этой теме нет новых непрочитанных сообщений. Остров ненужных людей [01-24] (2012) DVDRip

833 | 213

12.7 ГБ

В этой теме нет новых непрочитанных сообщений. Остров амфибий / Остров людей-рыб / L'isola degli uomini pesce / The Fish Men (1979) DVDRip | P2

158 | 31

1.45 ГБ

В этой теме нет новых непрочитанных сообщений. Мир невыспавшихся людей (2014) HDTVRip от GeneralFilm

745 | 52

603.37 МБ




Вы не можете начинать темы
Вы не можете отвечать на сообщения
Вы не можете редактировать свои сообщения
Вы не можете удалять свои сообщения
Вы не можете добавлять вложения

Перейти:  
Для Мосгорсуда, Роскомнадзора и рекламодателей: mosgorsud-torrent[собачка]yandex.ru
 Вход
ppkBB3cker v.2 © 2008-2014 @ PPK
[ Time : 0.074s | 14 Queries | GZIP : Off ]

Торрент трекер RUTOR.IN, Не можете зайти на rutor.org? Какой новый адрес рутор? Какое зеркало рутор? Не работает rutor.org и зеркала? Тогда наш торрент специально для вас. Rutor.in неофициальное зеркало rutor. В случае если у Вас заблокирован rutor или вдруг Вы не можете на него зайти, то Вы без труда сможете скачать бесплатно и без рекламы последние новинки кино, игр, сериалов и прочего у нас, на Rutor.in. Не нужно использовать прокси, чтобы зайти на рутор, достаточно воспользоваться нашим ресурсом. Все новые фильмы, игры, сериалы, книги и музыка за 2013 и 2014 годы через торрент бесплатно. Скачивайте фильмы в хорошем качестве, игры для пк, xbox, playstation без регистрации. У нас вы найдете новые Зарубежные сериалы и Русские сериалы 2013, 2014, 2015 годов. Оставайтесь с нами, качайте любимые фильмы, игры, сериалы, книги и музыку.