img image001 image001 image001 image001 image001 image001 image001 image001 image001 image001 image001 image001 image001 image001 image001

Planets Sun Sun Sun
Статистика раздачи
Автор: Nickolas3434 | Размер: 14.77 ГБ | Добавлен: 31 июл 2015
Раздают: 1137    Качают: 281
Скачать торрент
Скачать торрент
Описание торрента

СообщениеДобавлено: 31 июл 2015 


Оригинальное название: Ликвидация
Год выхода: 2007
Жанр: Детектив
Режиссер: Сергей Урсуляк
В ролях: Владимир Машков, Михаил Пореченков, Владимир Меньшов, Сергей Маковецкий, Андрей Краско, Светлана Крючкова, Фёдор Добронравов, Виктор Смирнов, Александр Голубев, Александр Семчев, Максим Дрозд, Олег Басилашвили, Вячеслав Ильин, Игорь Арташонов, Артём Осипов, Виктор Сарайкин, Диана Малая, Константин Лавроненко, Ксения Раппопорт, Полина Агуреева, Виктор Бунаков, Кирилл Кяро, Владимир Ровинский, Павел Ворожцов, Евгений Куршинский, Беата Маковская, Сергей Рубеко, Светлана Зубченко, Сергей Угрюмов, Лика Нифонтова, Виктор Супрун
О фильме: Послевоенная Одесса, разгул преступности. В городе орудует банда бывших диверсантов во главе с загадочным Академиком, которого не знают даже свои. Бандиты грабят военные склады и пытаются переправить продовольствие, обмундирование и оружие бандеровцам. В это время недовольный Жуковым Сталин назначает его командующим Одесским округом. Маршал всеми силами пытается навести в городе порядок. На борьбу с бандитами посланы все силы, особенно старается начальник уголовного розыска Давид Гоцман. В ходе расследования выясняется, что и в милиции, и в штабе командования у бандитов свои люди, в частности, сам Академик. Жуков и Гоцман прибегают к разным методам, чтобы выйти на банду. В конце концов Гоцман осуществляет идею внедрить в ряды бандитов своего человека и приманкой вынудить их к решительным действиям, чтобы всех взять и выйти на Академика.
Страна: Россия
Студия: Студия «Дед Мороз», Централ Партнершип
Продолжительность: 14 x ~ 00:45:30
Язык: Русский
Кодек: MPEG-4 AVC
Качество: DVDRip-AVC
Видео: 716х460@764x460, ~ 2800 Кбит/с, 25,000 fps
Звук: AC3, 6 ch, 448 Кбит/с
Семпл
General
Unique ID : 186939441585797399466222341050514608166 (0x8CA33A11C62CD3FFB359B7413B511026)
Complete name : J:мои рипыЛиквидация.(14.серий).2007.x264.DVDRip.(AVC)�9.mkv
Format : Matroska
Format version : Version 2
File size : 1.06 GiB
Duration : 45mn 26s
Overall bit rate : 3 345 Kbps
Movie name : Ликвидация / 2007 / 09 серия / Rip by PowerRock / ExKinoRay
Encoded date : UTC 2015-07-28 16:35:59
Writing application : mkvmerge v7.8.0 ('River Man') 32bit built on Apr 3 2015 12:11:22
Writing library : libebml v1.3.1 + libmatroska v1.4.2
Attachements : cover.jpg
Video
ID : 1
Format : AVC
Format/Info : Advanced Video Codec
Format profile : High@L4.1
Format settings, CABAC : Yes
Format settings, ReFrames : 8 frames
Codec ID : V_MPEG4/ISO/AVC
Duration : 45mn 26s
Bit rate : 2 894 Kbps
Width : 716 pixels
Height : 460 pixels
Display aspect ratio : 5:3
Original display aspect rat : 5:3
Frame rate mode : Constant
Frame rate : 25.000 fps
Color space : YUV
Chroma subsampling : 4:2:0
Bit depth : 8 bits
Scan type : Progressive
Bits/(Pixel*Frame) : 0.351
Stream size : 920 MiB (85%)
Title : Ликвидация / 2007 / 09 серия
Writing library : x264 core 146 r2538 121396c
Encoding settings : cabac=1 / ref=8 / deblock=1:-2:-2 / analyse=0x3:0x113 / me=umh / subme=10 / psy=1 / psy_rd=1.00:0.10 / mixed_ref=1 / me_range=24 / chroma_me=1 / trellis=2 / 8x8dct=1 / cqm=0 / deadzone=21,11 / fast_pskip=0 / chroma_qp_offset=-3 / threads=6 / lookahead_threads=1 / sliced_threads=0 / nr=0 / decimate=1 / interlaced=0 / bluray_compat=0 / constrained_intra=0 / bframes=8 / b_pyramid=2 / b_adapt=2 / b_bias=0 / direct=3 / weightb=1 / open_gop=0 / weightp=2 / keyint=250 / keyint_min=23 / scenecut=40 / intra_refresh=0 / rc_lookahead=50 / rc=2pass / mbtree=1 / bitrate=2894 / ratetol=1.0 / qcomp=0.60 / qpmin=10 / qpmax=51 / qpstep=4 / cplxblur=20.0 / qblur=0.5 / vbv_maxrate=14000 / vbv_bufsize=14000 / nal_hrd=none / filler=0 / ip_ratio=1.40 / aq=1:1.00
Default : Yes
Forced : No
Audio
ID : 2
Format : AC-3
Format/Info : Audio Coding 3
Mode extension : CM (complete main)
Format settings, Endianness : Big
Codec ID : A_AC3
Duration : 45mn 26s
Bit rate mode : Constant
Bit rate : 448 Kbps
Channel(s) : 6 channels
Channel positions : Front: L C R, Side: L R, LFE
Sampling rate : 48.0 KHz
Compression mode : Lossy
Stream size : 146 MiB (13%)
Language : Russian
Default : Yes
Forced : No
Золотой орел, 2009 год
Победитель (4):
Лучший телевизионный сериал (11 серий и более) — «Студия «Дед Мороз»»
Лучшая актриса на ТВ (Ксения Раппопорт)
Лучший актер на ТВ (Владимир Машков)
Лучшая работа художника-постановщика
Номинации (2):
Лучшая актриса на ТВ (Полина Агуреева)
Лучший актер на ТВ (Михаил Пореченков)
Кинонаграды «MTV-Россия», 2008 год
Номинации (1):
Лучший сериал — «телеканал «Россия»»
Ника, 2008 год
Победитель (1):
За творческие достижения в искусстве телевизионного кинематографа (Сергей Урсуляк)




Релиз от:



   Похожие торренты   Торрент   Размер 
В этой теме нет новых непрочитанных сообщений. Ликвидация [01-14 из 14] (2007) DVDRip

5504 | 793

5.48 ГБ

В этой теме нет новых непрочитанных сообщений. Ликвидация [01-14 из 14] (2007) DVDRip

2680 | 406

8.27 ГБ

В этой теме нет новых непрочитанных сообщений. Ликвидация [01-14 из 14] (2007) DVDRip от -=HD-NET=-

764 | 252

8.21 ГБ

В этой теме нет новых непрочитанных сообщений. Ликвидация [01-14 из 14] (2007) DVDRip

740 | 245

11.92 ГБ

В этой теме нет новых непрочитанных сообщений. Ликвидация [01-14 из 14] (2007) DVDRip-AVC от fandora

1184 | 368

13.15 ГБ

В этой теме нет новых непрочитанных сообщений. Ликвидация [01-14 из 14] (2007) DVDRip от Torrent-Xzona | КПК

1030 | 89

4.08 ГБ

В этой теме нет новых непрочитанных сообщений. Ликвидация [01-14 из 14] (2007) 4xDVD9

1052 | 594

27.39 ГБ




Вы не можете начинать темы
Вы не можете отвечать на сообщения
Вы не можете редактировать свои сообщения
Вы не можете удалять свои сообщения
Вы не можете добавлять вложения

Перейти:  
Для Мосгорсуда, Роскомнадзора и рекламодателей: mosgorsud-torrent[собачка]yandex.ru
 Вход
ppkBB3cker v.2 © 2008-2014 @ PPK
[ Time : 0.070s | 15 Queries | GZIP : Off ]

Торрент трекер RUTOR.IN, Не можете зайти на rutor.org? Какой новый адрес рутор? Какое зеркало рутор? Не работает rutor.org и зеркала? Тогда наш торрент специально для вас. Rutor.in неофициальное зеркало rutor. В случае если у Вас заблокирован rutor или вдруг Вы не можете на него зайти, то Вы без труда сможете скачать бесплатно и без рекламы последние новинки кино, игр, сериалов и прочего у нас, на Rutor.in. Не нужно использовать прокси, чтобы зайти на рутор, достаточно воспользоваться нашим ресурсом. Все новые фильмы, игры, сериалы, книги и музыка за 2013 и 2014 годы через торрент бесплатно. Скачивайте фильмы в хорошем качестве, игры для пк, xbox, playstation без регистрации. У нас вы найдете новые Зарубежные сериалы и Русские сериалы 2013, 2014, 2015 годов. Оставайтесь с нами, качайте любимые фильмы, игры, сериалы, книги и музыку.
cron