img image001 image001 image001 image001 image001 image001 image001 image001 image001 image001 image001 image001 image001 image001 image001

Planets Sun Sun Sun
Статистика раздачи
Автор: Nickolas3434 | Размер: 33.29 ГБ | Добавлен: 02 авг 2015
Раздают: 2    Качают: 4
Скачать торрент
Скачать торрент
Описание торрента

СообщениеДобавлено: 02 авг 2015 

Информация о сериале
Название: Холм одного дерева
Оригинальное название: One Tree Hill
Годы выхода: 2008-2009
Жанр: драма, спорт
Автор идеи: Марк Шван /Mark Schwahn/
Режиссеры: Грегори Прэндж /Gregory Prange/, Пол Йоханссон /Paul Johansson/, Марк Шван /Mark Schwahn/ и др.
В ролях: Чад Майкл Мюррэй /Chad Michael Murray/, Джеймс Лэфферти /James Lafferty/, Хилари Бертон /Hilarie Burton/, Бетани Джои Ленц /Bethany Joy Lenz/, София Буш /Sophia Bush/, Джексон Брандейдж /Jackson Brundage/, Барбара Элин Вудс /Barbara Alyn Woods/, Лиза Голдштейн /Lisa Goldstein/, Ли Норрис /Lee Norris/, Энтвон Тэннер /Antwon Tanner/ и др.
О сериале:
Помимо любви к баскетболу, кажется, что у Лукаса и Нейтена, двух молодых людей, нет ничего общего. За исключением темной тайны, заключающейся в том, что у них один отец. Высокомерный и уверенный, Нейтен — звезда баскетбольной команды средней школы и принадлежит самой богатой семье в городе.
Тихий и задумчивый, Лукас — единственный ребенок матери-одиночки. Он всегда держался на расстоянии от Нейтена. Но их жизни сталкиваются, когда Лукас попадает в команду Нейтена.

Страна: США
Студии: Tollin/Robbins Productions / Warner Bros. Television
Продолжительность: 24 x ~ 00:43:00
Перевод: Профессиональный (многоголосый, закадровый) - студия "НТВ+" по заказу НТВ
Файл
Кодек: H.264
Качество: WEB-DL 720p
Видео: 1280x720 at 23.976 fps, MPEG-4 AVC, ~4000 kbps avg
Аудио#1: Russian: 48 kHz, AC3, 2/0 (L,R) ch, ~192.00 kbps avg |Многоголосый закадровый, НТВ|
Аудио#2: English: 48 kHz, AC3, 3/2 (L,C,R,l,r) + LFE ch, ~384.00 kbps avg |Оригинал|
Субтитры: none

General
Complete name : One.Tree.Hill.S06E01.Touch Me I'm Going to Scream.720p.WEB-DL.NTV.mkv
Format : Matroska
Format version : Version 2
File size : 1.41 GiB
Duration : 42mn 33s
Overall bit rate : 4 730 Kbps
Movie name : One Tree Hill S06E01 'Touch Me I'm Going to Scream'
Encoded date : UTC 2011-10-08 13:41:05
Writing application : mkvmerge v5.0.0 ('Die Wahre Liebe') built on Sep 25 2011 20:33:49
Writing library : libebml v1.2.2 + libmatroska v1.3.0
Video
ID : 1
Format : AVC
Format/Info : Advanced Video Codec
Format profile : High@L3.1
Format settings, CABAC : No
Format settings, ReFrames : 2 frames
Codec ID : V_MPEG4/ISO/AVC
Duration : 42mn 33s
Bit rate : 4 060 Kbps
Width : 1 280 pixels
Height : 720 pixels
Display aspect ratio : 16:9
Frame rate mode : Constant
Frame rate : 23.976 fps
Color space : YUV
Chroma subsampling : 4:2:0
Bit depth : 8 bits
Scan type : Progressive
Bits/(Pixel*Frame) : 0.184
Stream size : 1.21 GiB (86%)
Language : English
Default : Yes
Forced : No
Color range : Limited
Color primaries : BT.709
Transfer characteristics : BT.709
Matrix coefficients : BT.709
Audio #1
ID : 2
Format : AC-3
Format/Info : Audio Coding 3
Mode extension : CM (complete main)
Format settings, Endianness : Big
Codec ID : A_AC3
Duration : 42mn 33s
Bit rate mode : Constant
Bit rate : 192 Kbps
Channel(s) : 2 channels
Channel positions : Front: L R
Sampling rate : 48.0 KHz
Compression mode : Lossy
Stream size : 58.4 MiB (4%)
Title : НТВ+
Language : Russian
Default : Yes
Forced : No
Audio #2
ID : 3
Format : AC-3
Format/Info : Audio Coding 3
Mode extension : CM (complete main)
Format settings, Endianness : Big
Codec ID : A_AC3
Duration : 42mn 33s
Bit rate mode : Constant
Bit rate : 384 Kbps
Channel(s) : 6 channels
Channel positions : Front: L C R, Side: L R, LFE
Sampling rate : 48.0 KHz
Compression mode : Lossy
Stream size : 117 MiB (8%)
Language : English
Default : No
Forced : No
01. Touch Me I'm Going to Scream: Part I / Хоть пальцем дотронешься – я закричу!
02. One Million Billionth of a Millisecond on a Sunday Morning / Доля секунды утром в воскресенье
03. Get Cape. Wear Cape. Fly. / Готовься к взлёту!
04. Bridge Over Troubled Water / Мост через роковые воды
05. You've Dug Your Own Grave, Now Lie in It / Вини во всём только себя!
06. Choosing My Own Way of Life / Я буду жить так, как захочу!
07. Messin' with the Kid / Детские забавы
08. Our Life Is Not a Movie or Maybe / Реальная жизнь или...
09. Sympathy for the Devil / Сочувствуя Дьяволу!
10. Even Fairy Tale Characters Would Be Jealous / Сжигающая зависть
11. We Three (My Echo, My Shadow and Me) / Нас трое: моё эхо, моя тень и Я
12. You Have to Be Joking (Autopsy of the Devil's Brain) / Ты, должно быть, шутишь? (Аутопсия дьявольских мозгов)
13. Things a Mamma Don't Know / Мама не в курсе
14. A Hand to Take Hold of the Scene / Рука, на которую можно опереться
15. We Change, We Wait / Мы меняемся и ждём того же от других
16. Screenwriter's Blues / Творческий кризис
17. You and Me and the Bottle Makes 3 Tonight / Нам весело втроём с бутылкой
18. Searching for a Former Clarity / В поисках былой ясности
19. Letting Go / Отпуская
20. I Would for You / Ради тебя
21. A Kiss to Build a Dream On / Мы построим нашу судьбу на этом поцелуе
22. Show Me How to Live / Научи меня жить
23. Forever and Almost Always / Навеки и почти навсегда
24. Remember Me as a Time of Day / Запомните меня счастливой



   Похожие торренты   Торрент   Размер 
В этой теме нет новых непрочитанных сообщений. Холм одного Дерева / One Tree Hill [S06] (2008-2009) HDTVRip от Othfilm

0 | 2

8.31 ГБ

В этой теме нет новых непрочитанных сообщений. Холм одного дерева / One Tree Hill [S05] (2008) WEB-DL 720p | НТВ

15 | 5

24.52 ГБ

В этой теме нет новых непрочитанных сообщений. Холм одного дерева / One Tree Hill [S07] (2009-2010) WEB-DL 720p | НТВ

6 | 2

29.72 ГБ

В этой теме нет новых непрочитанных сообщений. Холм Одного Дерева / One Tree Hill [S06] (2008) DVDRip от НТВ+

21 | 7

9.14 ГБ

В этой теме нет новых непрочитанных сообщений. Холм Одного Дерева / One Tree Hill [S07] (2009) DVDRip от НТВ+

13 | 13

8.34 ГБ

В этой теме нет новых непрочитанных сообщений. Холм одного дерева / One Tree Hill [S05] (2007-2008) DVDRip от НТВ+

5 | 18

6.83 ГБ

В этой теме нет новых непрочитанных сообщений. Холм одного дерева / One Tree Hill [S07] (2009) HDTVRip от OTHFilm

2 | 2

7.8 ГБ




Вы не можете начинать темы
Вы не можете отвечать на сообщения
Вы не можете редактировать свои сообщения
Вы не можете удалять свои сообщения
Вы не можете добавлять вложения

Перейти:  
Для Мосгорсуда, Роскомнадзора и рекламодателей: mosgorsud-torrent[собачка]yandex.ru
 Вход
ppkBB3cker v.2 © 2008-2014 @ PPK
[ Time : 0.257s | 15 Queries | GZIP : Off ]

Торрент трекер RUTOR.IN, Не можете зайти на rutor.org? Какой новый адрес рутор? Какое зеркало рутор? Не работает rutor.org и зеркала? Тогда наш торрент специально для вас. Rutor.in неофициальное зеркало rutor. В случае если у Вас заблокирован rutor или вдруг Вы не можете на него зайти, то Вы без труда сможете скачать бесплатно и без рекламы последние новинки кино, игр, сериалов и прочего у нас, на Rutor.in. Не нужно использовать прокси, чтобы зайти на рутор, достаточно воспользоваться нашим ресурсом. Все новые фильмы, игры, сериалы, книги и музыка за 2013 и 2014 годы через торрент бесплатно. Скачивайте фильмы в хорошем качестве, игры для пк, xbox, playstation без регистрации. У нас вы найдете новые Зарубежные сериалы и Русские сериалы 2013, 2014, 2015 годов. Оставайтесь с нами, качайте любимые фильмы, игры, сериалы, книги и музыку.