img image001 image001 image001 image001 image001 image001 image001 image001 image001 image001 image001 image001 image001 image001 image001

Planets Sun Sun Sun
Статистика раздачи
Автор: Nickolas3434 | Размер: 555.45 МБ | Добавлен: 09 авг 2015
Раздают: 551    Качают: 74
Скачать торрент
Скачать торрент
Описание торрента

СообщениеДобавлено: 09 авг 2015 

Название: Внутреннее расследование
Год выпуска: 2014
Производство: Россия , ООО "Прогресс-Студия"
Жанр: Детектив, криминал
Продолжительность: 00:46:56
Режиссёр: Вадим Саетгалиев
В ролях: Филипп Чевычелов, Андрей Родимов, Наталья Индейкина, Сергей Власов, Борис Чистяков, Алексей Лысенко, Сергей Мардарь, Олег Метелев, Дмитрий Певцов, Дмитрий Олейник
Описание: Новая захватывающая история о нелегкой судьбе начальника убойного отдела Рустема Зайнулина. Современная полиция. Кто в ней – честный «мент»? Кто - «оборотень»? Зайнулина обвиняют в убийстве своего подчиненного - агента под прикрытием. Накануне этого убийства Зайнуллин узнает от своего агента где скрывается криминальный авторитет Низамов. Этот бандит уже давно разыскивается за убийства и Зайнуллин бросается по следу. Но почти сразу его задерживают сотрудники управления собственной безопасности (УСБ). Зачем начальнику убойного отдела понадобилось убивать своего коллегу, так ли уж прав глава отдела «спецопераций» Латунин, который преследует Зайнулина? Разобраться в этом призывают не так давно вернувшегося в строй с заслуженного отдыха полковника Щуку. Полковник не особо рвался возвращаться в органы, его принципы и слегка устаревшие взгляды на жизнь никого, похоже, в этом мире не вдохновляют. Но именно он – честный, опытный, крутой полицейский становится главой Управления собственной безопасности Петербурга. Такой как он не может не докопаться до правды.

Качество: SATRip
Формат: AVI
Видео кодек: XviD
Аудио кодек: AC3
Видео: 720x400 (16:9), 25.000 fps, 1 453 Kbps
Аудио: AC-3, 48.0 KHz, 2 ch, 192 Kbps
Субтитры: Молдавские вшитые, неотключаемые
Общее
Полное имя : D:Vnutrennee_rassledovanie_01-16iz16_2015_XviD_SATRipVnutrennee_rassledovanie_12_2015_SATRip.avi
Формат : AVI
Формат/Информация : Audio Video Interleave
Размер файла : 555 Мбайт
Продолжительность : 46 м.
Общий поток : 1654 Кбит/сек
Библиотека кодирования : VirtualDub build 35491/release
Видео
Идентификатор : 0
Формат : MPEG-4 Visual
Профиль формата : Advanced Simple@L5
Параметр BVOP формата : 2
Параметр QPel формата : Нет
Параметр GMC формата : Без точки перехода
Параметр матрицы формата : Default (H.263)
Идентификатор кодека : XVID
Идентификатор кодека/Подсказка : XviD
Продолжительность : 46 м.
Битрейт : 1453 Кбит/сек
Ширина : 720 пикселей
Высота : 400 пикселей
Соотношение сторон : 16:9
Частота кадров : 25,000 кадров/сек
Цветовое пространство : YUV
Субдискретизация насыщенности : 4:2:0
Битовая глубина : 8 бит
Тип развёртки : Прогрессивная
Метод сжатия : С потерями
Бит/(Пиксели*Кадры) : 0.202
Размер потока : 488 Мбайт (88%)
Библиотека кодирования : XviD 66
Аудио
Идентификатор : 1
Формат : AC-3
Формат/Информация : Audio Coding 3
Расширение режима : CM (complete main)
Параметр Endianness формата : Big
Идентификатор кодека : 2000
Продолжительность : 46 м.
Вид битрейта : Постоянный
Битрейт : 192 Кбит/сек
Каналы : 2 канала
Расположение каналов : Front: L R
Частота : 48,0 КГц
Метод сжатия : С потерями
Размер потока : 64,5 Мбайт (12%)
Выравнивание : Соединение по промежуткам
Продолжительность промежутка : 40 мс. (1,00 видеокадр)
Время предзагрузки промежутка : 512 мс.





   Похожие торренты   Торрент   Размер 
В этой теме нет новых непрочитанных сообщений. Внутреннее расследование [01-10 из 16] (2014) SATRip

1233 | 514

5.37 ГБ

В этой теме нет новых непрочитанных сообщений. Внутреннее расследование [15 из 16] (2014) SATRip

147 | 17

555.44 МБ

В этой теме нет новых непрочитанных сообщений. Внутреннее расследование [13 из 16] (2014) SATRip

90 | 7

555.41 МБ

В этой теме нет новых непрочитанных сообщений. Внутреннее расследование [01-09 из 16] (2014) SATRip

1330 | 374

4.84 ГБ

В этой теме нет новых непрочитанных сообщений. Внутреннее расследование [11 из 16] (2014) SATRip

330 | 10

550.37 МБ

В этой теме нет новых непрочитанных сообщений. Внутреннее расследование [14 из 16] (2014) SATRip

122 | 15

555.39 МБ

В этой теме нет новых непрочитанных сообщений. Внутреннее расследование [01-12 из 16] (2014) SATRip

211 | 53

5.97 ГБ




Вы не можете начинать темы
Вы не можете отвечать на сообщения
Вы не можете редактировать свои сообщения
Вы не можете удалять свои сообщения
Вы не можете добавлять вложения

Перейти:  
Для Мосгорсуда, Роскомнадзора и рекламодателей: mosgorsud-torrent[собачка]yandex.ru
 Вход
ppkBB3cker v.2 © 2008-2014 @ PPK
[ Time : 0.060s | 15 Queries | GZIP : Off ]

Торрент трекер RUTOR.IN, Не можете зайти на rutor.org? Какой новый адрес рутор? Какое зеркало рутор? Не работает rutor.org и зеркала? Тогда наш торрент специально для вас. Rutor.in неофициальное зеркало rutor. В случае если у Вас заблокирован rutor или вдруг Вы не можете на него зайти, то Вы без труда сможете скачать бесплатно и без рекламы последние новинки кино, игр, сериалов и прочего у нас, на Rutor.in. Не нужно использовать прокси, чтобы зайти на рутор, достаточно воспользоваться нашим ресурсом. Все новые фильмы, игры, сериалы, книги и музыка за 2013 и 2014 годы через торрент бесплатно. Скачивайте фильмы в хорошем качестве, игры для пк, xbox, playstation без регистрации. У нас вы найдете новые Зарубежные сериалы и Русские сериалы 2013, 2014, 2015 годов. Оставайтесь с нами, качайте любимые фильмы, игры, сериалы, книги и музыку.