img image001 image001 image001 image001 image001 image001 image001 image001 image001 image001 image001 image001 image001 image001 image001

Planets Sun Sun Sun
Статистика раздачи
Автор: Nickolas3434 | Размер: 994.08 МБ | Добавлен: 12 авг 2015
Раздают: 98    Качают: 2
Скачать торрент
Скачать торрент
Описание торрента

СообщениеДобавлено: 12 авг 2015 

Название: Сложности
Оригинальное название: Complications
Год выпуска: 2015
Страна: США
Жанр: драма, криминал
Продолжительность: ~45 мин.
Перевод: Любительский (многоголосый закадровый) IdeaFilm
Режиссёр: Арвин Браун, Роджер Камбл, Майкл Нанкин
В ролях: В ролях: Джессика Зор, Бэт Рисграф, Лорен Стемайл, Альберт С. Бейтс, Джейсон О’Мара, Кристин Хорн, Крис Чок, РонРико Ли, Джейден Бёрд
Описание: Доктор Джон Эллис считал свою жизнь устоявшейся до того момента, пока не оказался в центре бандитской перестрелки. Всё закончилось тем, что он спас мальчика, которого расстреляли из движущегося авто, а нападавшие были убиты. Вскоре Эллис узнает, что мальчику всё ещё угрожает смертельная опасность, и решает, что обязан спасти его любой ценой…
Доп. информация: No Ads
Сэмпл: http://sendfile.su/1144744
Качество: HDTV 720p
Контейнер: MKV
Видео: AVC 2675 Kbps 1280x720 23.976 fps
Аудио: Русский AC-3 192 Kbps 2 channels 48.0 KHz 16 bits
Аудио 2: Английский AC-3 384 Kbps 6 channels 48.0 KHz 16 bits
Субтитры: отсутствуют
General
Format : Matroska
Format version : Version 4 / Version 2
File size : 994 MiB
Duration : 41mn 53s
Overall bit rate : 3 317 Kbps
Encoded date : UTC 2015-08-10 13:18:03
Writing application : mkvmerge v6.0.0 ('Coming Up For Air') built on Jan 20 2013 09:52:00
Writing library : libebml v1.3.0 + libmatroska v1.4.0
Video
ID : 1
Format : AVC
Format/Info : Advanced Video Codec
Format profile : High@L4.1
Format settings, CABAC : Yes
Format settings, ReFrames : 5 frames
Codec ID : V_MPEG4/ISO/AVC
Duration : 41mn 53s
Bit rate : 2 675 Kbps
Width : 1 280 pixels
Height : 720 pixels
Display aspect ratio : 16:9
Frame rate mode : Constant
Frame rate : 23.976 fps
Color space : YUV
Chroma subsampling : 4:2:0
Bit depth : 8 bits
Scan type : Progressive
Bits/(Pixel*Frame) : 0.121
Stream size : 802 MiB (81%)
Writing library : x264 core 146 r2538 121396c
Encoding settings : cabac=1 / ref=5 / deblock=1:0:0 / analyse=0x3:0x113 / me=umh / subme=8 / psy=1 / psy_rd=1.00:0.00 / mixed_ref=1 / me_range=16 / chroma_me=1 / trellis=1 / 8x8dct=1 / cqm=0 / deadzone=21,11 / fast_pskip=1 / chroma_qp_offset=-2 / threads=12 / lookahead_threads=2 / sliced_threads=0 / nr=0 / decimate=1 / interlaced=0 / bluray_compat=0 / constrained_intra=0 / bframes=3 / b_pyramid=2 / b_adapt=2 / b_bias=0 / direct=3 / weightb=1 / open_gop=0 / weightp=2 / keyint=250 / keyint_min=23 / scenecut=40 / intra_refresh=0 / rc_lookahead=50 / rc=crf / mbtree=1 / crf=18.0 / qcomp=0.60 / qpmin=0 / qpmax=69 / qpstep=4 / ip_ratio=1.40 / aq=1:1.00
Language : English
Default : Yes
Forced : No
Matrix coefficients : BT.709
Audio #1
ID : 2
Format : AC-3
Format/Info : Audio Coding 3
Mode extension : CM (complete main)
Format settings, Endianness : Big
Codec ID : A_AC3
Duration : 41mn 53s
Bit rate mode : Constant
Bit rate : 192 Kbps
Channel(s) : 2 channels
Channel positions : Front: L R
Sampling rate : 48.0 KHz
Bit depth : 16 bits
Compression mode : Lossy
Stream size : 57.5 MiB (6%)
Title : IdeaFilm
Language : Russian
Default : Yes
Forced : No
Audio #2
ID : 3
Format : AC-3
Format/Info : Audio Coding 3
Mode extension : CM (complete main)
Format settings, Endianness : Big
Codec ID : A_AC3
Duration : 41mn 53s
Bit rate mode : Constant
Bit rate : 384 Kbps
Channel(s) : 6 channels
Channel positions : Front: L C R, Side: L R, LFE
Sampling rate : 48.0 KHz
Bit depth : 16 bits
Compression mode : Lossy
Stream size : 115 MiB (12%)
Language : English
Default : No
Forced : No





   Похожие торренты   Торрент   Размер 
В этой теме нет новых непрочитанных сообщений. Сложности / Complications [S01] (2015) WEB-DL 720p | IdeaFilm

22 | 20

12.48 ГБ

В этой теме нет новых непрочитанных сообщений. Сложности / Complications [01х01-09 из 10] (2015) WEB-DL 720p | IdeaFilm

8 | 6

11.31 ГБ

В этой теме нет новых непрочитанных сообщений. Сложности / Complications [S01] (2015) WEB-DLRip | IdeaFilm

74 | 37

5.64 ГБ

В этой теме нет новых непрочитанных сообщений. Сложности / Complications [S01] (2015) WEB-DL 720p | Baibako

70 | 369

14.64 ГБ

В этой теме нет новых непрочитанных сообщений. Сложности / Complications [01х01-08 из 10] (2015) WEB-DL 720p | Baibako

42 | 30

11.88 ГБ

В этой теме нет новых непрочитанных сообщений. Сложности / Complications [01х01 из 10] (2015) WEB-DL 720p | Baibako

40 | 2

2.11 ГБ

В этой теме нет новых непрочитанных сообщений. Сложности / Complications [S01] (2015) WEB-DLRip | Baibako

215 | 160

4.84 ГБ




Вы не можете начинать темы
Вы не можете отвечать на сообщения
Вы не можете редактировать свои сообщения
Вы не можете удалять свои сообщения
Вы не можете добавлять вложения

Перейти:  
Для Мосгорсуда, Роскомнадзора и рекламодателей: mosgorsud-torrent[собачка]yandex.ru
 Вход
ppkBB3cker v.2 © 2008-2014 @ PPK
[ Time : 0.049s | 16 Queries | GZIP : On ]

Торрент трекер RUTOR.IN, Не можете зайти на rutor.org? Какой новый адрес рутор? Какое зеркало рутор? Не работает rutor.org и зеркала? Тогда наш торрент специально для вас. Rutor.in неофициальное зеркало rutor. В случае если у Вас заблокирован rutor или вдруг Вы не можете на него зайти, то Вы без труда сможете скачать бесплатно и без рекламы последние новинки кино, игр, сериалов и прочего у нас, на Rutor.in. Не нужно использовать прокси, чтобы зайти на рутор, достаточно воспользоваться нашим ресурсом. Все новые фильмы, игры, сериалы, книги и музыка за 2013 и 2014 годы через торрент бесплатно. Скачивайте фильмы в хорошем качестве, игры для пк, xbox, playstation без регистрации. У нас вы найдете новые Зарубежные сериалы и Русские сериалы 2013, 2014, 2015 годов. Оставайтесь с нами, качайте любимые фильмы, игры, сериалы, книги и музыку.