img image001 image001 image001 image001 image001 image001 image001 image001 image001 image001 image001 image001 image001 image001 image001

Planets Sun Sun Sun
Статистика раздачи
Автор: Nickolas3434 | Размер: 36.3 ГБ | Добавлен: 14 авг 2015
Раздают: 45    Качают: 64
Скачать торрент
Скачать торрент
Описание торрента

СообщениеДобавлено: 14 авг 2015 

Информация о сериале
Название: Мыслить как преступник
Оригинальное название: Criminal Minds
Годы выхода: 2008-2009
Жанр: драма, криминал, детектив, триллер
Автор идеи: Джефф Дэвис /Jeff Davis/
Режиссеры: Гленн Кершоу /Glenn Kershaw/, Феликс Энрикез Алькала /Félix Enríquez Alcalá/, Эдвард Аллен Бернеро /Edward Allen Bernero/ и др.
В ролях: Джо Мантенья /Joe Mantegna/, Томас Гибсон /Thomas Gibson/, Пэйджет Брюстер /Paget Brewster/, Шемар Мур /Shemar Moore/, Мэттью Грей Гублер /Matthew Gray Gubler/, А.Дж. Кук /A.J. Cook/, Кирстен Вангснесс /Kirsten Vangsness/, Мэнди Пэтинкин /Mandy Patinkin/ и др.
О сериале:
Главные герои сериала - команда лучших следователей ФБР, способных понять и проанализировать ход мыслей самых изощрённых преступников, предугадать их дальнейшие поступки и тем самым предотвратить ужасные преступления. Когда обычные криминалисты заходят в тупик, на помощь им приходят специалисты по поведенческому анализу.
Вместо тщательного изучения улик они пытаются найти и понять мотивы преступления, досконально вникая в каждый шаг преступника и пытаясь мыслить, как он. Работая на месте преступления, эти профессионалы словно расследуют его изнутри, стараясь понять мысли преступника, какими бы тёмными они ни были.

Страна: США, Канада
Студии: The Mark Gordon Company / Paramount Network Television / ABC Studios
Продолжительность: 26 x ~ 00:43:00
Перевод: Профессиональный (многоголосый, закадровый) - Fox Crime
Файл
Кодек: H.264
Качество: WEB-DL 720p
Видео: 1280x720 at 23.976 fps, MPEG-4 AVC, ~4000 kbps avg
Аудио#1: Russian: 48 kHz, AC3, 2/0 (L,R) ch, ~192.00 kbps avg |Многоголосый закадровый, Fox Crime|
Аудио#2: English: 48 kHz, AC3, 3/2 (L,C,R,l,r) + LFE ch, ~384.00 kbps avg |Оригинал|
Субтитры: none

General
Complete name : Criminal.Minds.S04E01.rus(FOX Crime).eng.720p.web-dl Mayhem.mkv
Format : Matroska
Format version : Version 2
File size : 1.38 GiB
Duration : 42mn 14s
Overall bit rate : 4 665 Kbps
Encoded date : UTC 2011-08-19 04:01:01
Writing application : mkvmerge v4.8.0 ('I Got The...') сборка от May 24 2011 03:12:58
Writing library : libebml v1.2.0 + libmatroska v1.1.0
Video
ID : 1
Format : AVC
Format/Info : Advanced Video Codec
Format profile : High@L3.1
Format settings, CABAC : No
Format settings, ReFrames : 2 frames
Codec ID : V_MPEG4/ISO/AVC
Duration : 42mn 14s
Bit rate : 3 997 Kbps
Width : 1 280 pixels
Height : 720 pixels
Display aspect ratio : 16:9
Frame rate mode : Constant
Frame rate : 23.976 fps
Color space : YUV
Chroma subsampling : 4:2:0
Bit depth : 8 bits
Scan type : Progressive
Bits/(Pixel*Frame) : 0.181
Stream size : 1.18 GiB (86%)
Language : English
Default : Yes
Forced : No
Color range : Limited
Color primaries : BT.709
Transfer characteristics : BT.709
Matrix coefficients : BT.709
Audio #1
ID : 2
Format : AC-3
Format/Info : Audio Coding 3
Mode extension : CM (complete main)
Format settings, Endianness : Big
Codec ID : A_AC3
Duration : 42mn 14s
Bit rate mode : Constant
Bit rate : 192 Kbps
Channel(s) : 2 channels
Channel positions : Front: L R
Sampling rate : 48.0 KHz
Compression mode : Lossy
Stream size : 58.0 MiB (4%)
Title : FOX Crime
Language : Russian
Default : Yes
Forced : No
Audio #2
ID : 3
Format : AC-3
Format/Info : Audio Coding 3
Mode extension : CM (complete main)
Format settings, Endianness : Big
Codec ID : A_AC3
Duration : 42mn 14s
Bit rate mode : Constant
Bit rate : 384 Kbps
Channel(s) : 6 channels
Channel positions : Front: L C R, Side: L R, LFE
Sampling rate : 48.0 KHz
Compression mode : Lossy
Stream size : 116 MiB (8%)
Language : English
Default : No
Forced : No
01. Mayhem / Хаос
02. The Angel Maker / Ангелотворец
03. Minimal Loss / Минимальные потери
04. Paradise / Рай
05. Catching Out / Отлов
06. The Instincts / Инстинкты
07. Memoriam / В память
08. Masterpiece / Шедевр
09. 52 Pickup / Искусство соблазнения
10. Brothers in Arms / Братья по оружию
11. Normal / Обычный
12. Soul Mates / Родственные души
13. Bloodline / Родословная
14. Cold Comfort / Слабое утешение
15. Zoe's Reprise / Возрождение Зоуи
16. Pleasure Is My Business / Удовольствие - моя работа
17. Demonology / Демонология
18. Omnivore / Всеядный
19. House on Fire / Дом в огне
20. Conflicted / Противоречия
21. A Shade of Gray / Оттенки серого
22. The Big Wheel / Большое колесо
23. Roadkill / Наезд
24. Amplification / Преувеличение
25. To Hell... (Part 1) / В ад...
26. ...And Back (Part 2) / И обратно



   Похожие торренты   Торрент   Размер 
В этой теме нет новых непрочитанных сообщений. Мыслить как преступник / Criminal Minds [S03] (2007-2008) WEB-DL 720p | Fox Crime, ДТВ

65 | 30

29.15 ГБ

В этой теме нет новых непрочитанных сообщений. Мыслить как преступник / Criminal Minds [S05] (2009-2010) WEB-DL 720p | Fox Crime

76 | 48

31.62 ГБ

В этой теме нет новых непрочитанных сообщений. Мыслить как преступник / Criminal Minds [S08] (2012) WEB-DL 720p | Fox Crime

0 | 6

32.39 ГБ

В этой теме нет новых непрочитанных сообщений. Мыслить как преступник / Criminal Minds [S07] (2011-2012) WEB-DL 720p | Fox Crime

82 | 57

33.44 ГБ

В этой теме нет новых непрочитанных сообщений. Мыслить как преступник / Criminal Minds [S06] (2010-2011) WEB-DL 720p | Fox Crime

52 | 34

33.21 ГБ

В этой теме нет новых непрочитанных сообщений. Мыслить как преступник / Criminal Minds [S08] (2012) WEB-DLRip | Fox Crime

32 | 13

11.72 ГБ

В этой теме нет новых непрочитанных сообщений. Мыслить как преступник / Criminal Minds [S07] (2011-2012) WEB-DLRip | Fox Crime

97 | 30

11.72 ГБ




Вы не можете начинать темы
Вы не можете отвечать на сообщения
Вы не можете редактировать свои сообщения
Вы не можете удалять свои сообщения
Вы не можете добавлять вложения

Перейти:  
Для Мосгорсуда, Роскомнадзора и рекламодателей: mosgorsud-torrent[собачка]yandex.ru
 Вход
ppkBB3cker v.2 © 2008-2014 @ PPK
[ Time : 0.684s | 15 Queries | GZIP : On ]

Торрент трекер RUTOR.IN, Не можете зайти на rutor.org? Какой новый адрес рутор? Какое зеркало рутор? Не работает rutor.org и зеркала? Тогда наш торрент специально для вас. Rutor.in неофициальное зеркало rutor. В случае если у Вас заблокирован rutor или вдруг Вы не можете на него зайти, то Вы без труда сможете скачать бесплатно и без рекламы последние новинки кино, игр, сериалов и прочего у нас, на Rutor.in. Не нужно использовать прокси, чтобы зайти на рутор, достаточно воспользоваться нашим ресурсом. Все новые фильмы, игры, сериалы, книги и музыка за 2013 и 2014 годы через торрент бесплатно. Скачивайте фильмы в хорошем качестве, игры для пк, xbox, playstation без регистрации. У нас вы найдете новые Зарубежные сериалы и Русские сериалы 2013, 2014, 2015 годов. Оставайтесь с нами, качайте любимые фильмы, игры, сериалы, книги и музыку.