img image001 image001 image001 image001 image001 image001 image001 image001 image001 image001 image001 image001 image001 image001 image001

Planets Sun Sun Sun
Статистика раздачи
Автор: Nickolas3434 | Размер: 29.72 ГБ | Добавлен: 16 авг 2015
Раздают: 6    Качают: 2
Скачать торрент
Скачать торрент
Описание торрента

СообщениеДобавлено: 16 авг 2015 

Информация о сериале
Название: Холм одного дерева
Оригинальное название: One Tree Hill
Годы выхода: 2009-2010
Жанр: драма, спорт
Автор идеи: Марк Шван /Mark Schwahn/
Режиссеры: Грегори Прэндж /Gregory Prange/, Пол Йоханссон /Paul Johansson/, Марк Шван /Mark Schwahn/ и др.
В ролях: Джеймс Лэфферти /James Lafferty/, Бетани Джои Ленц /Bethany Joy Lenz/, София Буш /Sophia Bush/, Остин Николс /Austin Nichols/, Роберт Бакли /Robert Buckley/, Шантель Ван Сантен /Shantel Van Santen/, Джексон Брандейдж /Jackson Brundage/, Яна Крамер /Jana Kramer/, Лиза Голдштейн /Lisa Goldstein/, Ли Норрис /Lee Norris/ и др.
О сериале:
Помимо любви к баскетболу, кажется, что у Лукаса и Нейтена, двух молодых людей, нет ничего общего. За исключением темной тайны, заключающейся в том, что у них один отец. Высокомерный и уверенный, Нейтен — звезда баскетбольной команды средней школы и принадлежит самой богатой семье в городе.
Тихий и задумчивый, Лукас — единственный ребенок матери-одиночки. Он всегда держался на расстоянии от Нейтена. Но их жизни сталкиваются, когда Лукас попадает в команду Нейтена.

Страна: США
Студии: Tollin/Robbins Productions / Warner Bros. Television
Продолжительность: 22 x ~ 00:43:00
Перевод: Профессиональный (многоголосый, закадровый) - студия "НТВ+" по заказу НТВ
Файл
Кодек: H.264
Качество: WEB-DL 720p
Видео: 1280x720 at 23.976 fps, MPEG-4 AVC, ~4000 kbps avg
Аудио#1: Russian: 48 kHz, AC3, 2/0 (L,R) ch, ~192.00 kbps avg |Многоголосый закадровый, НТВ|
Аудио#2: English: 48 kHz, AC3, 3/2 (L,C,R,l,r) + LFE ch, ~384.00 kbps avg |Оригинал|
Субтитры: none

General
Complete name : One.Tree.Hill.S07E01.4_30 AM (Apparently They Were Travelling Abroad).720p.WEB-DL.NTV+.mkv
Format : Matroska
Format version : Version 2
File size : 1.37 GiB
Duration : 42mn 5s
Overall bit rate : 4 663 Kbps
Movie name : 01 4:30 AM (Apparently They Were Travelling Abroad).mp4
Encoded date : UTC 2011-10-07 16:54:03
Writing application : mkvmerge v3.4.0 ('Rapunzel') сборка от May 15 2010 09:38:20
Writing library : libebml v0.8.0 + libmatroska v0.9.0
Video
ID : 1
Format : AVC
Format/Info : Advanced Video Codec
Format profile : High@L3.1
Format settings, CABAC : No
Format settings, ReFrames : 2 frames
Codec ID : V_MPEG4/ISO/AVC
Duration : 42mn 5s
Bit rate : 3 994 Kbps
Width : 1 280 pixels
Height : 720 pixels
Display aspect ratio : 16:9
Frame rate mode : Constant
Frame rate : 23.976 fps
Color space : YUV
Chroma subsampling : 4:2:0
Bit depth : 8 bits
Scan type : Progressive
Bits/(Pixel*Frame) : 0.181
Stream size : 1.17 GiB (86%)
Language : English
Default : No
Forced : No
Color range : Limited
Color primaries : BT.709
Transfer characteristics : BT.709
Matrix coefficients : BT.709
Audio #1
ID : 2
Format : AC-3
Format/Info : Audio Coding 3
Mode extension : CM (complete main)
Format settings, Endianness : Big
Codec ID : A_AC3
Duration : 42mn 5s
Bit rate mode : Constant
Bit rate : 192 Kbps
Channel(s) : 2 channels
Channel positions : Front: L R
Sampling rate : 48.0 KHz
Compression mode : Lossy
Stream size : 57.8 MiB (4%)
Title : NTV+
Language : Russian
Default : Yes
Forced : No
Audio #2
ID : 3
Format : AC-3
Format/Info : Audio Coding 3
Mode extension : CM (complete main)
Format settings, Endianness : Big
Codec ID : A_AC3
Duration : 42mn 5s
Bit rate mode : Constant
Bit rate : 384 Kbps
Channel(s) : 6 channels
Channel positions : Front: L C R, Side: L R, LFE
Sampling rate : 48.0 KHz
Compression mode : Lossy
Stream size : 116 MiB (8%)
Language : English
Default : No
Forced : No
01. 4:30 AM (Apparently They Were Travelling Abroad) / 4:30 утра (Очевидно, они путешествовали за границей)
02. What Are You Willing to Lose / Что ты согласен потерять?
03. Hold My Hand as I'm Lowered / Держи мою руку, пока я спускаюсь
04. Believe Me, I'm Lying / Поверь мне, я лгу
05. Your Cheatin' Heart / Твоё лживое сердце
06. Deep Ocean Vast Sea / Глубокий океан безбрежного моря
07. I and Love and You / Я, любовь и ты
08. I Just Died in Your Arms Tonight / Я только что умер в твоих объятиях
09. Now You Lift Your Eyes to the Sun / Теперь посмотри на солнце
10. You Are a Runner, and I Am My Father's Son / Ты - беглец, а я сын своего отца
11. You Know I Love You, Don't You / Ты знаешь, что я люблю тебя, ведь так?
12. Some Roads Lead Nowhere / Некоторые дороги никуда не ведут
13. Weeks Go by Like Days / Недели тянутся как дни
14. Family Affair / Семейные дела
15. Don't You Forget About Me / Не забывай меня
16. My Attendance Is Bad But My Intentions Are Good / Мое присутствие нежелательно, но у меня благие намерения
17. At the Bottom of Everything / В начале всего
18. The Last Day of Our Acquaintance / Последний день нашего знакомства
19. Every Picture Tells a Story / У каждой фотографии своя история
20. Learning to Fall / Учись проигрывать
21. What's in the Ground Belongs to You / То, что в земле принадлежит тебе
22. Almost Everything I Wish I'd Said the Last Time I Saw You / Почти все, что я хотел сказать, когда видел тебя последний раз



   Похожие торренты   Торрент   Размер 
В этой теме нет новых непрочитанных сообщений. Холм одного дерева / One Tree Hill [S06] (2008-2009) WEB-DL 720p | НТВ

2 | 4

33.29 ГБ

В этой теме нет новых непрочитанных сообщений. Холм Одного Дерева / One Tree Hill [S07] (2009) DVDRip от НТВ+

13 | 13

8.34 ГБ

В этой теме нет новых непрочитанных сообщений. Холм Одного Дерева / One Tree Hill [S08] (2010) WEB-DLRip | P HTB

13 | 5

10.35 ГБ

В этой теме нет новых непрочитанных сообщений. Холм одного дерева / One Tree Hill [S07] (2009) HDTVRip от OTHFilm

2 | 2

7.8 ГБ

В этой теме нет новых непрочитанных сообщений. Холм Одного Дерева / One Tree Hill [S08] (2010) HDTVRip | OTHfilm

2 | 3

7.56 ГБ

В этой теме нет новых непрочитанных сообщений. Холм одного Дерева / One Tree Hill [S06] (2008-2009) HDTVRip от Othfilm

0 | 2

8.31 ГБ

В этой теме нет новых непрочитанных сообщений. Холм одного дерева / One Tree Hill [S05] (2008) WEB-DL 720p | НТВ

15 | 5

24.52 ГБ




Вы не можете начинать темы
Вы не можете отвечать на сообщения
Вы не можете редактировать свои сообщения
Вы не можете удалять свои сообщения
Вы не можете добавлять вложения

Перейти:  
Для Мосгорсуда, Роскомнадзора и рекламодателей: mosgorsud-torrent[собачка]yandex.ru
 Вход
ppkBB3cker v.2 © 2008-2014 @ PPK
[ Time : 0.073s | 17 Queries | GZIP : Off ]

Торрент трекер RUTOR.IN, Не можете зайти на rutor.org? Какой новый адрес рутор? Какое зеркало рутор? Не работает rutor.org и зеркала? Тогда наш торрент специально для вас. Rutor.in неофициальное зеркало rutor. В случае если у Вас заблокирован rutor или вдруг Вы не можете на него зайти, то Вы без труда сможете скачать бесплатно и без рекламы последние новинки кино, игр, сериалов и прочего у нас, на Rutor.in. Не нужно использовать прокси, чтобы зайти на рутор, достаточно воспользоваться нашим ресурсом. Все новые фильмы, игры, сериалы, книги и музыка за 2013 и 2014 годы через торрент бесплатно. Скачивайте фильмы в хорошем качестве, игры для пк, xbox, playstation без регистрации. У нас вы найдете новые Зарубежные сериалы и Русские сериалы 2013, 2014, 2015 годов. Оставайтесь с нами, качайте любимые фильмы, игры, сериалы, книги и музыку.
cron