img image001 image001 image001 image001 image001 image001 image001 image001 image001 image001 image001 image001 image001 image001 image001

Planets Sun Sun Sun
Статистика раздачи
Автор: Nickolas3434 | Размер: 227.21 ГБ | Добавлен: 18 авг 2015
Раздают: 14    Качают: 111
Скачать торрент
Скачать торрент
Описание торрента

СообщениеДобавлено: 18 авг 2015 




Название: Остаться в живых (сериал)
Оригинальное название: Lost
Год выпуска: 2004-2005
Страна: США
Жанр: фантастика, фэнтези, триллер, драма, детектив, приключения
Продолжительность: ~00:42:20
Перевод: Дубляж
Субтитры: русские (Форсированные), русские (Полные), английские (полные)

В ролях: Мэттью Фокс (Jack Shephard), Эванджелин Лилли (Kate Austen), Джош Холлоуэй (James «Sawyer» Ford), Терри О’Куинн (John Locke), Навин Эндрюс (Sayid Jarrah), Хорхе Гарсиа (Hugo «Hurley» Reyes), Майкл Эмерсон (Ben Linus), Эмили де Рэвин (Claire Littleton), Дэниэл Дэ Ким (Jin Kwon), Ким Юн Джин (Sun Kwon), Генри Йен Кьюсик (Desmond Hume), Доминик Монахэн (Charlie Pace)


Описание:
Красавец-лайнер, совершающий полет из Сиднея в Лос-Анджелес, неожиданно терпит крушение. 48 пассажиров оказываются на пустынном острове посреди океана. Люди в панике.
Надежда быть найденными довольно призрачна. Поэтому остается только одно: собраться с силами и постараться выжить на острове, начиненном множеством опасностей...


Рейтинг

imdb.com: 8.50 (332 942)


Качество: BDRip-AVC 60fps
Формат: MKV
Видео кодек: AVC
Аудио кодек:AC3
Видео: AVC, 1024x576 (16:9), 5300 kbps, 59,940 fps, 0,150 bpp
Аудио №1: русский / AC3 / 5.1 / 48 kHz / 448 kbps / 16 bit |Дубляж|
Аудио №2: английский / AC3 / 5.1 / 48 kHz / 640 kbps / 16 bit



01 - Пилот. Часть 1 / Pilot: Part 1
02 - Пилот. Часть 2 / Pilot: Part 2
03 - С чистого листа / Tabula rasa
04 - Поход / Walkabout
05 - Белый кролик / White Rabbit
06 - Дом восходящего солнца / House of the Rising Sun
07 - Мотылек / The Moth
08 - Вопрос доверия / Confidence Man
09 - Отшельница / Solitary
10 - Воспитаный Другими / Raised by Another
11 - В сердце джунглей / All the Best Cowboys Have Daddy Issues
12 - Больше, чем просто кейс / Whatever the Case May Be
13 - Разум и чувства / Hearts and Minds
14 - Особенный / Special
15 - Возвращение домой / Homecoming
16 - Вне закона / Outlaws
17 - Трудности перевода / ...In Translation
18 - Числа / Numbers
19 - Что таят джунгли / Deus Ex Machina
20 - Не навреди! / Do No Harm
21 - Высшее благо / The Greater Good
22 - Рожденная бежать / Born to Run
23 - Исход. Часть 1 / Exodus: Part 1
24-25 - Исход. Часть 2 / Exodus: Part 2
General
Unique ID : 192987976548145568930550522835662064557 (0x913021DE065064208BE60EE109A8CBAD)
Format : Matroska
Format version : Version 4 / Version 2
File size : 1.89 GiB
Duration : 42mn 20s
Overall bit rate : 6 392 Kbps
Movie name : Tiberiumsun69
Encoded date : UTC 2015-08-16 01:16:05
Writing application : mkvmerge v7.9.0 ('Birds') 64bit
Writing library : libebml v1.3.1 + libmatroska v1.4.2
Attachment : Yes
Video
ID : 1
Format : AVC
Format/Info : Advanced Video Codec
Format profile : High@L4.1
Format settings, CABAC : Yes
Format settings, ReFrames : 4 frames
Codec ID : V_MPEG4/ISO/AVC
Duration : 42mn 20s
Bit rate : 5 300 Kbps
Width : 1 024 pixels
Height : 576 pixels
Display aspect ratio : 16:9
Frame rate : 59.940 fps
Color space : YUV
Chroma subsampling : 4:2:0
Bit depth : 8 bits
Scan type : Progressive
Bits/(Pixel*Frame) : 0.150
Stream size : 1.53 GiB (81%)
Title : Tiberiumsun69
Writing library : x264 core 146 r2538 121396c
Encoding settings : cabac=1 / ref=4 / deblock=1:0:0 / analyse=0x3:0x113 / me=umh / subme=9 / psy=1 / psy_rd=1.00:0.10 / mixed_ref=1 / me_range=32 / chroma_me=1 / trellis=2 / 8x8dct=1 / cqm=0 / deadzone=21,11 / fast_pskip=0 / chroma_qp_offset=-3 / threads=12 / lookahead_threads=3 / sliced_threads=0 / nr=0 / decimate=1 / interlaced=0 / bluray_compat=0 / constrained_intra=0 / bframes=16 / b_pyramid=2 / b_adapt=2 / b_bias=0 / direct=3 / weightb=1 / open_gop=0 / weightp=2 / keyint=600 / keyint_min=59 / scenecut=40 / intra_refresh=0 / rc_lookahead=60 / rc=2pass / mbtree=1 / bitrate=5300 / ratetol=1.0 / qcomp=0.60 / qpmin=0 / qpmax=69 / qpstep=4 / cplxblur=20.0 / qblur=0.5 / vbv_maxrate=50000 / vbv_bufsize=62500 / nal_hrd=none / filler=0 / ip_ratio=1.40 / aq=1:1.00
Language : English
Default : Yes
Forced : No
Audio #1
ID : 2
Format : AC-3
Format/Info : Audio Coding 3
Mode extension : CM (complete main)
Codec ID : A_AC3
Duration : 42mn 20s
Bit rate mode : Constant
Bit rate : 448 Kbps
Channel(s) : 6 channels
Channel positions : Front: L C R, Side: L R, LFE
Sampling rate : 48.0 KHz
Bit depth : 16 bits
Compression mode : Lossy
Stream size : 136 MiB (7%)
Title : Дубляж
Language : Russian
Default : Yes
Forced : No
Audio #2
ID : 3
Format : AC-3
Format/Info : Audio Coding 3
Mode extension : CM (complete main)
Codec ID : A_AC3
Duration : 42mn 20s
Bit rate mode : Constant
Bit rate : 640 Kbps
Channel(s) : 6 channels
Channel positions : Front: L C R, Side: L R, LFE
Sampling rate : 48.0 KHz
Bit depth : 16 bits
Compression mode : Lossy
Stream size : 194 MiB (10%)
Title : Оригинал
Language : English
Default : No
Forced : No
Text #1
ID : 4
Format : ASS
Codec ID : S_TEXT/ASS
Codec ID/Info : Advanced Sub Station Alpha
Compression mode : Lossless
Title : Russian @ Forced ASS
Language : Russian
Default : Yes
Forced : Yes
Text #2
ID : 5
Format : ASS
Codec ID : S_TEXT/ASS
Codec ID/Info : Advanced Sub Station Alpha
Compression mode : Lossless
Title : Russian @ ASS
Language : Russian
Default : No
Forced : No
Text #3
ID : 6
Format : ASS
Codec ID : S_TEXT/ASS
Codec ID/Info : Advanced Sub Station Alpha
Compression mode : Lossless
Title : English @ ASS
Language : English
Default : No
Forced : No




Название: Остаться в живых (сериал)
Оригинальное название: Lost
Год выпуска: 2005-2006
Страна: США
Жанр: фантастика, фэнтези, триллер, драма, детектив, приключения
Продолжительность: ~00:43:15
Перевод: Дубляж
Субтитры: русские (Форсированные), русские (Полные), английские (Полные)

В ролях: Мэттью Фокс (Jack Shephard), Эванджелин Лилли (Kate Austen), Джош Холлоуэй (James «Sawyer» Ford), Терри О’Куинн (John Locke), Навин Эндрюс (Sayid Jarrah), Хорхе Гарсиа (Hugo «Hurley» Reyes), Майкл Эмерсон (Ben Linus), Эмили де Рэвин (Claire Littleton), Дэниэл Дэ Ким (Jin Kwon), Ким Юн Джин (Sun Kwon), Генри Йен Кьюсик (Desmond Hume), Доминик Монахэн (Charlie Pace)


Описание:
Красавец-лайнер, совершающий полет из Сиднея в Лос-Анджелес, неожиданно терпит крушение. 48 пассажиров оказываются на пустынном острове посреди океана. Люди в панике.
Надежда быть найденными довольно призрачна. Поэтому остается только одно: собраться с силами и постараться выжить на острове, начиненном множеством опасностей...


Рейтинг

imdb.com: 8.50 (332 942)


Качество: BDRip-AVC 60fps
Формат: MKV
Видео кодек: AVC
Аудио кодек:AC3
Видео: AVC, 1024x576 (16:9), 5300 kbps, 59,940 fps, 0,150 bpp
Аудио №1: русский / AC3 / 5.1 / 48 kHz / 448 kbps / 16 bit |Дубляж|
Аудио №2: английский / AC3 / 5.1 / 48 kHz / 640 kbps / 16 bit



01 - Человек науки, человек веры / Man of Science, Man of Faith
02 - По течению / Adrift
03 - Ориентация / Orientation
04 - Все ненавидят Хьюго / Everybody Hates Hugo
05 - Поиски / ...And Found
06 - Брошенная / Abandoned
07 - Другие 48 дней / The Other 48 Days
08 - Страшные ошибки / Collision
09 - Что сделала Кейт / What Kate Did
10 - 23-й псалом / The 23rd Psalm
11 - Охота / The Hunting Party
12 - Огонь и вода / Fire + Water
13 - Афера / The Long Con
14 - Один из них / One of Them
15 - Радость материнства / Maternity Leave
16 - Правда, и только правда / The Whole Truth
17 - Взаперти / Lockdown
18 - Дейв / Dave
19 - Спасите наши души / S.O.S.
20 - Обмен / Two for the Road
21 - ? / ?
22 - Три минуты / Three Minutes
23-24 - Живём вместе, умираем в одиночестве / Live Together, Die Alone
General
Unique ID : 223469731755061312604382611186922709930 (0xA81EB46E1BD465959E79E445838E63AA)
Format : Matroska
Format version : Version 4 / Version 2
File size : 1.93 GiB
Duration : 43mn 15s
Overall bit rate : 6 387 Kbps
Movie name : Tiberiumsun69
Encoded date : UTC 2015-08-15 08:17:38
Writing application : mkvmerge v7.9.0 ('Birds') 64bit
Writing library : libebml v1.3.1 + libmatroska v1.4.2
Attachment : Yes
Video
ID : 1
Format : AVC
Format/Info : Advanced Video Codec
Format profile : High@L4.1
Format settings, CABAC : Yes
Format settings, ReFrames : 4 frames
Codec ID : V_MPEG4/ISO/AVC
Duration : 43mn 15s
Bit rate : 5 300 Kbps
Width : 1 024 pixels
Height : 576 pixels
Display aspect ratio : 16:9
Frame rate : 59.940 fps
Color space : YUV
Chroma subsampling : 4:2:0
Bit depth : 8 bits
Scan type : Progressive
Bits/(Pixel*Frame) : 0.150
Stream size : 1.56 GiB (81%)
Title : Tiberiumsun69
Writing library : x264 core 146 r2538 121396c
Encoding settings : cabac=1 / ref=4 / deblock=1:0:0 / analyse=0x3:0x113 / me=umh / subme=9 / psy=1 / psy_rd=1.00:0.10 / mixed_ref=1 / me_range=32 / chroma_me=1 / trellis=2 / 8x8dct=1 / cqm=0 / deadzone=21,11 / fast_pskip=0 / chroma_qp_offset=-3 / threads=12 / lookahead_threads=3 / sliced_threads=0 / nr=0 / decimate=1 / interlaced=0 / bluray_compat=0 / constrained_intra=0 / bframes=16 / b_pyramid=2 / b_adapt=2 / b_bias=0 / direct=3 / weightb=1 / open_gop=0 / weightp=2 / keyint=600 / keyint_min=59 / scenecut=40 / intra_refresh=0 / rc_lookahead=60 / rc=2pass / mbtree=1 / bitrate=5300 / ratetol=1.0 / qcomp=0.60 / qpmin=0 / qpmax=69 / qpstep=4 / cplxblur=20.0 / qblur=0.5 / vbv_maxrate=50000 / vbv_bufsize=62500 / nal_hrd=none / filler=0 / ip_ratio=1.40 / aq=1:1.00
Language : English
Default : Yes
Forced : No
Audio #1
ID : 2
Format : AC-3
Format/Info : Audio Coding 3
Mode extension : CM (complete main)
Codec ID : A_AC3
Duration : 43mn 15s
Bit rate mode : Constant
Bit rate : 448 Kbps
Channel(s) : 6 channels
Channel positions : Front: L C R, Side: L R, LFE
Sampling rate : 48.0 KHz
Bit depth : 16 bits
Compression mode : Lossy
Stream size : 139 MiB (7%)
Title : Дубляж
Language : Russian
Default : Yes
Forced : No
Audio #2
ID : 3
Format : AC-3
Format/Info : Audio Coding 3
Mode extension : CM (complete main)
Codec ID : A_AC3
Duration : 43mn 15s
Bit rate mode : Constant
Bit rate : 640 Kbps
Channel(s) : 6 channels
Channel positions : Front: L C R, Side: L R, LFE
Sampling rate : 48.0 KHz
Bit depth : 16 bits
Compression mode : Lossy
Stream size : 198 MiB (10%)
Title : Оригинал
Language : English
Default : No
Forced : No
Text #1
ID : 4
Format : ASS
Codec ID : S_TEXT/ASS
Codec ID/Info : Advanced Sub Station Alpha
Compression mode : Lossless
Title : Форсированные
Language : Russian
Default : Yes
Forced : No
Text #2
ID : 5
Format : ASS
Codec ID : S_TEXT/ASS
Codec ID/Info : Advanced Sub Station Alpha
Compression mode : Lossless
Title : Полные
Language : Russian
Default : No
Forced : No
Text #3
ID : 6
Format : ASS
Codec ID : S_TEXT/ASS
Codec ID/Info : Advanced Sub Station Alpha
Compression mode : Lossless
Title : Полные
Language : English
Default : No
Forced : No




Название: Остаться в живых (сериал)
Оригинальное название: Lost
Год выпуска: 2006-2007
Страна: США
Жанр: фантастика, фэнтези, триллер, драма, детектив, приключения
Продолжительность: ~00:43:06
Перевод: Дубляж
Субтитры: русские (Форсированные), русские (Полные), английские (Полные)

В ролях: Мэттью Фокс (Jack Shephard), Эванджелин Лилли (Kate Austen), Джош Холлоуэй (James «Sawyer» Ford), Терри О’Куинн (John Locke), Навин Эндрюс (Sayid Jarrah), Хорхе Гарсиа (Hugo «Hurley» Reyes), Майкл Эмерсон (Ben Linus), Эмили де Рэвин (Claire Littleton), Дэниэл Дэ Ким (Jin Kwon), Ким Юн Джин (Sun Kwon), Генри Йен Кьюсик (Desmond Hume), Доминик Монахэн (Charlie Pace)


Описание:
Красавец-лайнер, совершающий полет из Сиднея в Лос-Анджелес, неожиданно терпит крушение. 48 пассажиров оказываются на пустынном острове посреди океана. Люди в панике.
Надежда быть найденными довольно призрачна. Поэтому остается только одно: собраться с силами и постараться выжить на острове, начиненном множеством опасностей...


Рейтинг

imdb.com: 8.50 (332 942)


Качество: BDRip-AVC 60fps
Формат: MKV
Видео кодек: AVC
Аудио кодек:AC3
Видео: AVC, 1024x576 (16:9), 5300 kbps, 59,940 fps, 0,150 bpp
Аудио №1: русский / AC3 / 2.0 / 48 kHz / 320 kbps / 16 bit |Дубляж|
Аудио №2: английский / AC3 / 5.1 / 48 kHz / 640 kbps / 16 bit



01 - Повесть о двух городах / A Tale of Two Cities
02 - Стеклянная балерина / The Glass Ballerina
03 - Дальнейшие указания / Further Instructions
04 - Каждый сам за себя / Every Man for Himself
05 - Цена жизни / The Cost of Living
06 - Я согласна / I Do
07 - Не в Портленде / Not in Portland
08 - Вспышки перед глазами / Flashes Before Your Eyes
09 - Чужак в чужой стране / Stranger in a Strange Land
10 - Триша Танака мертва / Tricia Tanaka Is Dead
11 - Введите 77 / Enter 77
12 - Авиапочта / Par Avion
13 - Человек из Таллахасси / The Man from Tallahassee
14 - Разоблачение / Exposé
15 - Брошенные / Left Behind
16 - Одна из нас / One of Us
17 - Уловка 22 / Catch-22
18 - День зачатия / D.O.C.
19 - Гауптвахта / The Brig
20 - Человек за ширмой / The Man Behind the Curtain
21 - Избранное / Greatest Hits
22-23 - В Зазеркалье / Through the Looking Glass
General
Unique ID : 214573351957092908790918611031192891249 (0xA16D530A9430830F989AB21ABB19EF71)
Format : Matroska
Format version : Version 4 / Version 2
File size : 1.89 GiB
Duration : 43mn 6s
Overall bit rate : 6 265 Kbps
Movie name : Tiberiumsun69
Encoded date : UTC 2015-08-16 00:05:42
Writing application : mkvmerge v7.9.0 ('Birds') 64bit
Writing library : libebml v1.3.1 + libmatroska v1.4.2
Attachment : Yes
Video
ID : 1
Format : AVC
Format/Info : Advanced Video Codec
Format profile : High@L4.1
Format settings, CABAC : Yes
Format settings, ReFrames : 4 frames
Codec ID : V_MPEG4/ISO/AVC
Duration : 43mn 6s
Bit rate : 5 300 Kbps
Width : 1 024 pixels
Height : 576 pixels
Display aspect ratio : 16:9
Frame rate : 59.940 fps
Color space : YUV
Chroma subsampling : 4:2:0
Bit depth : 8 bits
Scan type : Progressive
Bits/(Pixel*Frame) : 0.150
Stream size : 1.56 GiB (83%)
Title : Tiberiumsun69
Writing library : x264 core 146 r2538 121396c
Encoding settings : cabac=1 / ref=4 / deblock=1:0:0 / analyse=0x3:0x113 / me=umh / subme=9 / psy=1 / psy_rd=1.00:0.10 / mixed_ref=1 / me_range=32 / chroma_me=1 / trellis=2 / 8x8dct=1 / cqm=0 / deadzone=21,11 / fast_pskip=0 / chroma_qp_offset=-3 / threads=12 / lookahead_threads=3 / sliced_threads=0 / nr=0 / decimate=1 / interlaced=0 / bluray_compat=0 / constrained_intra=0 / bframes=16 / b_pyramid=2 / b_adapt=2 / b_bias=0 / direct=3 / weightb=1 / open_gop=0 / weightp=2 / keyint=600 / keyint_min=59 / scenecut=40 / intra_refresh=0 / rc_lookahead=40 / rc=2pass / mbtree=1 / bitrate=5300 / ratetol=1.0 / qcomp=0.60 / qpmin=0 / qpmax=69 / qpstep=4 / cplxblur=20.0 / qblur=0.5 / vbv_maxrate=50000 / vbv_bufsize=62500 / nal_hrd=none / filler=0 / ip_ratio=1.40 / aq=1:1.00
Language : English
Default : Yes
Forced : No
Audio #1
ID : 2
Format : AC-3
Format/Info : Audio Coding 3
Format profile : Dolby Digital
Mode extension : CM (complete main)
Codec ID : A_AC3
Duration : 43mn 6s
Bit rate mode : Constant
Bit rate : 320 Kbps
Channel(s) : 2 channels
Channel positions : Front: L R
Sampling rate : 48.0 KHz
Bit depth : 16 bits
Compression mode : Lossy
Stream size : 98.7 MiB (5%)
Title : Дубляж
Language : Russian
Default : Yes
Forced : No
Audio #2
ID : 3
Format : AC-3
Format/Info : Audio Coding 3
Mode extension : CM (complete main)
Codec ID : A_AC3
Duration : 43mn 6s
Bit rate mode : Constant
Bit rate : 640 Kbps
Channel(s) : 6 channels
Channel positions : Front: L C R, Side: L R, LFE
Sampling rate : 48.0 KHz
Bit depth : 16 bits
Compression mode : Lossy
Stream size : 197 MiB (10%)
Title : Оригинал
Language : English
Default : No
Forced : No
Text #1
ID : 4
Format : PGS
Muxing mode : zlib
Codec ID : S_HDMV/PGS
Codec ID/Info : The same subtitle format used on BDs/HD-DVDs
Title : Форсированные
Language : Russian
Default : Yes
Forced : No
Text #2
ID : 5
Format : UTF-8
Codec ID : S_TEXT/UTF8
Codec ID/Info : UTF-8 Plain Text
Title : Полные
Language : Russian
Default : No
Forced : No
Text #3
ID : 6
Format : UTF-8
Codec ID : S_TEXT/UTF8
Codec ID/Info : UTF-8 Plain Text
Title : Полные
Language : English
Default : No
Forced : No




Название: Остаться в живых (сериал)
Оригинальное название: Lost
Год выпуска: 2008
Страна: США
Жанр: фантастика, фэнтези, триллер, драма, детектив, приключения
Продолжительность: ~00:43:04
Перевод: Дубляж
Субтитры: русские (Форсированные), русские (Полные), английские (Полные)

В ролях: Мэттью Фокс (Jack Shephard), Эванджелин Лилли (Kate Austen), Джош Холлоуэй (James «Sawyer» Ford), Терри О’Куинн (John Locke), Навин Эндрюс (Sayid Jarrah), Хорхе Гарсиа (Hugo «Hurley» Reyes), Майкл Эмерсон (Ben Linus), Эмили де Рэвин (Claire Littleton), Дэниэл Дэ Ким (Jin Kwon), Ким Юн Джин (Sun Kwon), Генри Йен Кьюсик (Desmond Hume), Доминик Монахэн (Charlie Pace)


Описание:
Красавец-лайнер, совершающий полет из Сиднея в Лос-Анджелес, неожиданно терпит крушение. 48 пассажиров оказываются на пустынном острове посреди океана. Люди в панике.
Надежда быть найденными довольно призрачна. Поэтому остается только одно: собраться с силами и постараться выжить на острове, начиненном множеством опасностей...


Рейтинг

imdb.com: 8.50 (332 942)


Качество: BDRip-AVC 60fps
Формат: MKV
Видео кодек: AVC
Аудио кодек:AC3
Видео: AVC, 1024x576 (16:9), 5300 kbps, 59,940 fps, 0,150 bpp
Аудио №1: русский / AC3 / 2.0 / 48 kHz / 192 kbps / 16 bit |Дубляж|
Аудио №2: английский / AC3 / 5.1 / 48 kHz / 640 kbps / 16 bit



01 - Начало конца / The Beginning of the End
02 - Официально погибшие / Confirmed Dead
03 - Экономист / The Economist
04 - Яичный город / Eggtown
05 - Константа / The Constant
06 - Другая женщина / The Other Woman
07 - Чи Ён / Ji Yeon
08 - Знакомьтесь — Кевин Джонсон / Meet Kevin Johnson
09 - Перспективы на будущее / The Shape of Things to Come
10 - Домашние радости / Something Nice Back Home
11 - Лихорадка в хижине / Cabin Fever
12 - Нет места лучше дома. Часть 1 / There's No Place Like Home. Part 1
13-14 - Нет места лучше дома. Часть 2-3 / There's No Place Like Home: Parts 2 & 3
General
Unique ID : 240318674188534068719399626636110808374 (0xB4CBB16DCA43178ABEAB4A01E2874536)
Format : Matroska
Format version : Version 4 / Version 2
File size : 1.85 GiB
Duration : 43mn 4s
Overall bit rate : 6 138 Kbps
Movie name : Tiberiumsun69
Encoded date : UTC 2015-08-15 13:42:07
Writing application : mkvmerge v7.9.0 ('Birds') 64bit
Writing library : libebml v1.3.1 + libmatroska v1.4.2
Attachment : Yes
Video
ID : 1
Format : AVC
Format/Info : Advanced Video Codec
Format profile : High@L4.1
Format settings, CABAC : Yes
Format settings, ReFrames : 4 frames
Codec ID : V_MPEG4/ISO/AVC
Duration : 43mn 4s
Bit rate : 5 300 Kbps
Width : 1 024 pixels
Height : 576 pixels
Display aspect ratio : 16:9
Frame rate : 59.940 fps
Color space : YUV
Chroma subsampling : 4:2:0
Bit depth : 8 bits
Scan type : Progressive
Bits/(Pixel*Frame) : 0.150
Stream size : 1.56 GiB (84%)
Title : Tiberiumsun69
Writing library : x264 core 146 r2538 121396c
Encoding settings : cabac=1 / ref=4 / deblock=1:0:0 / analyse=0x3:0x113 / me=umh / subme=9 / psy=1 / psy_rd=1.00:0.10 / mixed_ref=1 / me_range=32 / chroma_me=1 / trellis=2 / 8x8dct=1 / cqm=0 / deadzone=21,11 / fast_pskip=0 / chroma_qp_offset=-3 / threads=12 / lookahead_threads=3 / sliced_threads=0 / nr=0 / decimate=1 / interlaced=0 / bluray_compat=0 / constrained_intra=0 / bframes=16 / b_pyramid=2 / b_adapt=2 / b_bias=0 / direct=3 / weightb=1 / open_gop=0 / weightp=2 / keyint=600 / keyint_min=59 / scenecut=40 / intra_refresh=0 / rc_lookahead=40 / rc=2pass / mbtree=1 / bitrate=5300 / ratetol=1.0 / qcomp=0.60 / qpmin=0 / qpmax=69 / qpstep=4 / cplxblur=20.0 / qblur=0.5 / vbv_maxrate=50000 / vbv_bufsize=62500 / nal_hrd=none / filler=0 / ip_ratio=1.40 / aq=1:1.00
Language : English
Default : Yes
Forced : No
Audio #1
ID : 2
Format : AC-3
Format/Info : Audio Coding 3
Mode extension : CM (complete main)
Codec ID : A_AC3
Duration : 43mn 4s
Bit rate mode : Constant
Bit rate : 192 Kbps
Channel(s) : 2 channels
Channel positions : Front: L R
Sampling rate : 48.0 KHz
Bit depth : 16 bits
Compression mode : Lossy
Stream size : 59.2 MiB (3%)
Title : Дубляж
Language : Russian
Default : Yes
Forced : No
Audio #2
ID : 3
Format : AC-3
Format/Info : Audio Coding 3
Mode extension : CM (complete main)
Codec ID : A_AC3
Duration : 43mn 4s
Bit rate mode : Constant
Bit rate : 640 Kbps
Channel(s) : 6 channels
Channel positions : Front: L C R, Side: L R, LFE
Sampling rate : 48.0 KHz
Bit depth : 16 bits
Compression mode : Lossy
Stream size : 197 MiB (10%)
Title : Оригинал
Language : English
Default : No
Forced : No
Text #1
ID : 4
Format : ASS
Codec ID : S_TEXT/ASS
Codec ID/Info : Advanced Sub Station Alpha
Compression mode : Lossless
Title : Форсированные
Language : Russian
Default : Yes
Forced : No
Text #2
ID : 5
Format : ASS
Codec ID : S_TEXT/ASS
Codec ID/Info : Advanced Sub Station Alpha
Compression mode : Lossless
Title : Полные
Language : Russian
Default : No
Forced : No
Text #3
ID : 6
Format : ASS
Codec ID : S_TEXT/ASS
Codec ID/Info : Advanced Sub Station Alpha
Compression mode : Lossless
Title : Полные
Language : English
Default : No
Forced : No




Название: Остаться в живых (сериал)
Оригинальное название: Lost
Год выпуска: 2009
Страна: США
Жанр: фантастика, фэнтези, триллер, драма, детектив, приключения
Продолжительность: ~00:43:11
Перевод: Дубляж
Субтитры: русские (Форсированные), русские (Полные), английские (Полные)

В ролях: Мэттью Фокс (Jack Shephard), Эванджелин Лилли (Kate Austen), Джош Холлоуэй (James «Sawyer» Ford), Терри О’Куинн (John Locke), Навин Эндрюс (Sayid Jarrah), Хорхе Гарсиа (Hugo «Hurley» Reyes), Майкл Эмерсон (Ben Linus), Эмили де Рэвин (Claire Littleton), Дэниэл Дэ Ким (Jin Kwon), Ким Юн Джин (Sun Kwon), Генри Йен Кьюсик (Desmond Hume), Доминик Монахэн (Charlie Pace)


Описание:
Красавец-лайнер, совершающий полет из Сиднея в Лос-Анджелес, неожиданно терпит крушение. 48 пассажиров оказываются на пустынном острове посреди океана. Люди в панике.
Надежда быть найденными довольно призрачна. Поэтому остается только одно: собраться с силами и постараться выжить на острове, начиненном множеством опасностей...


Рейтинг

imdb.com: 8.50 (332 942)


Качество: BDRip-AVC 60fps
Формат: MKV
Видео кодек: AVC
Аудио кодек:AC3
Видео: AVC, 1024x576 (16:9), 5300 kbps, 59,940 fps, 0,150 bpp
Аудио №1: русский / AC3 / 2.0 / 48 kHz / 192 kbps / 16 bit |Дубляж|
Аудио №2: английский / AC3 / 5.1 / 48 kHz / 640 kbps / 16 bit



01 - Потому что вы уплыли / Because You Left
02 - Ложь / The Lie
03 - Болванка / Jughead
04 - Маленький принц / The Little Prince
05 - Остров смерти / This Place Is Death
06 - 316
07 - Жизнь и смерть Джереми Бентама / The Life and Death of Jeremy Bentham
08 - ЛаФлёр / LaFleur
09 - Намасте / Namaste
10 - Это наш ты / He’s Our You
11 - Обратной дороги нет / Whatever Happened, Happened
12 - Мёртвый — значит мёртвый / Dead Is Dead
13 - Некоторые любят похолоднее / Some Like It Hoth
14 - Переменная величина / The Variable
15 - Следуй за лидером / Follow the Leader
16-17 - Авария / The Incident
General
Unique ID : 199636296061836195180883910355764616678 (0x96308D539EF7401A8241CB7A62D39DE6)
Format : Matroska
Format version : Version 4 / Version 2
File size : 1.85 GiB
Duration : 43mn 11s
Overall bit rate : 6 145 Kbps
Movie name : Tiberiumsun69
Encoded date : UTC 2015-08-16 02:28:05
Writing application : mkvmerge v7.9.0 ('Birds') 64bit
Writing library : libebml v1.3.1 + libmatroska v1.4.2
Attachment : Yes / Yes / Yes / Yes / Yes
Video
ID : 1
Format : AVC
Format/Info : Advanced Video Codec
Format profile : High@L4.1
Format settings, CABAC : Yes
Format settings, ReFrames : 4 frames
Codec ID : V_MPEG4/ISO/AVC
Duration : 43mn 11s
Bit rate : 5 300 Kbps
Width : 1 024 pixels
Height : 576 pixels
Display aspect ratio : 16:9
Frame rate : 59.940 fps
Color space : YUV
Chroma subsampling : 4:2:0
Bit depth : 8 bits
Scan type : Progressive
Bits/(Pixel*Frame) : 0.150
Stream size : 1.57 GiB (84%)
Title : Tiberiumsun69
Writing library : x264 core 146 r2538 121396c
Encoding settings : cabac=1 / ref=4 / deblock=1:0:0 / analyse=0x3:0x113 / me=umh / subme=9 / psy=1 / psy_rd=1.00:0.10 / mixed_ref=1 / me_range=32 / chroma_me=1 / trellis=2 / 8x8dct=1 / cqm=0 / deadzone=21,11 / fast_pskip=0 / chroma_qp_offset=-3 / threads=12 / lookahead_threads=3 / sliced_threads=0 / nr=0 / decimate=1 / interlaced=0 / bluray_compat=0 / constrained_intra=0 / bframes=16 / b_pyramid=2 / b_adapt=2 / b_bias=0 / direct=3 / weightb=1 / open_gop=0 / weightp=2 / keyint=600 / keyint_min=59 / scenecut=40 / intra_refresh=0 / rc_lookahead=60 / rc=2pass / mbtree=1 / bitrate=5300 / ratetol=1.0 / qcomp=0.60 / qpmin=0 / qpmax=69 / qpstep=4 / cplxblur=20.0 / qblur=0.5 / vbv_maxrate=50000 / vbv_bufsize=62500 / nal_hrd=none / filler=0 / ip_ratio=1.40 / aq=1:1.00
Language : English
Default : Yes
Forced : No
Audio #1
ID : 2
Format : AC-3
Format/Info : Audio Coding 3
Mode extension : CM (complete main)
Codec ID : A_AC3
Duration : 43mn 11s
Bit rate mode : Constant
Bit rate : 192 Kbps
Channel(s) : 2 channels
Channel positions : Front: L R
Sampling rate : 48.0 KHz
Bit depth : 16 bits
Compression mode : Lossy
Stream size : 59.3 MiB (3%)
Title : Дубляж
Language : Russian
Default : Yes
Forced : No
Audio #2
ID : 3
Format : AC-3
Format/Info : Audio Coding 3
Mode extension : CM (complete main)
Codec ID : A_AC3
Duration : 43mn 11s
Bit rate mode : Constant
Bit rate : 640 Kbps
Channel(s) : 6 channels
Channel positions : Front: L C R, Side: L R, LFE
Sampling rate : 48.0 KHz
Bit depth : 16 bits
Compression mode : Lossy
Stream size : 198 MiB (10%)
Title : Оригинал
Language : English
Default : No
Forced : No
Text #1
ID : 4
Format : ASS
Codec ID : S_TEXT/ASS
Codec ID/Info : Advanced Sub Station Alpha
Compression mode : Lossless
Title : Форсированные
Language : Russian
Default : Yes
Forced : No
Text #2
ID : 5
Format : ASS
Codec ID : S_TEXT/ASS
Codec ID/Info : Advanced Sub Station Alpha
Compression mode : Lossless
Title : Полные
Language : Russian
Default : No
Forced : No
Text #3
ID : 6
Format : ASS
Codec ID : S_TEXT/ASS
Codec ID/Info : Advanced Sub Station Alpha
Compression mode : Lossless
Title : Полные
Language : English
Default : No
Forced : No




Название: Остаться в живых (сериал)
Оригинальное название: Lost
Год выпуска: 2010
Страна: США
Жанр: фантастика, фэнтези, триллер, драма, детектив, приключения
Продолжительность: ~00:42:36
Перевод: Дубляж
Субтитры: русские (Форсированные), русские (Полные), английские (Полные)

В ролях: Мэттью Фокс (Jack Shephard), Эванджелин Лилли (Kate Austen), Джош Холлоуэй (James «Sawyer» Ford), Терри О’Куинн (John Locke), Навин Эндрюс (Sayid Jarrah), Хорхе Гарсиа (Hugo «Hurley» Reyes), Майкл Эмерсон (Ben Linus), Эмили де Рэвин (Claire Littleton), Дэниэл Дэ Ким (Jin Kwon), Ким Юн Джин (Sun Kwon), Генри Йен Кьюсик (Desmond Hume), Доминик Монахэн (Charlie Pace)


Описание:
Красавец-лайнер, совершающий полет из Сиднея в Лос-Анджелес, неожиданно терпит крушение. 48 пассажиров оказываются на пустынном острове посреди океана. Люди в панике.
Надежда быть найденными довольно призрачна. Поэтому остается только одно: собраться с силами и постараться выжить на острове, начиненном множеством опасностей...


Рейтинг

imdb.com: 8.50 (332 942)


Качество: BDRip-AVC 60fps
Формат: MKV
Видео кодек: AVC
Аудио кодек:AC3
Видео: AVC, 1024x576 (16:9), 5300 kbps, 59,940 fps, 0,150 bpp
Аудио №1: русский / AC3 / 2.0 / 48 kHz / 192 kbps / 16 bit |Дубляж|
Аудио №2: английский / AC3 / 5.1 / 48 kHz / 640 kbps / 16 bit



01-02 - Аэропорт Лос-Анджелеса
03 - Что делает Кейт / What Kate Does
04 - Замена / The Substitute
05 - Маяк / Lighthouse
06 - Закат / Sundown
07 - Доктор Лайнус / Dr. Linus
08 - Разведка / Recon
09 - С начала времён / Ab Aeterno
10 - Посылка / The Package
11 - Долго и счастливо / Happily Ever After
12 - Все любят Хьюго / Everybody Loves Hugo
13 - Последний новобранец / The Last Recruit
14 - Кандидат / The Candidate
15 - Через море / Across the Sea
16 - Ради чего они погибли / What They Died For
17-18 - Конец / The End

General
Unique ID : 205161734791946115528176252115275837088 (0x9A58B67D31EBCC34A35C57D4FC0D6EA0)
Format : Matroska
Format version : Version 4 / Version 2
File size : 1.83 GiB
Duration : 42mn 36s
Overall bit rate : 6 134 Kbps
Movie name : Tiberiumsun69
Encoded date : UTC 2015-08-16 03:44:59
Writing application : mkvmerge v7.9.0 ('Birds') 64bit
Writing library : libebml v1.3.1 + libmatroska v1.4.2
Attachment : Yes
Video
ID : 1
Format : AVC
Format/Info : Advanced Video Codec
Format profile : High@L4.1
Format settings, CABAC : Yes
Format settings, ReFrames : 4 frames
Codec ID : V_MPEG4/ISO/AVC
Duration : 42mn 36s
Bit rate : 5 300 Kbps
Width : 1 024 pixels
Height : 576 pixels
Display aspect ratio : 16:9
Frame rate : 59.940 fps
Color space : YUV
Chroma subsampling : 4:2:0
Bit depth : 8 bits
Scan type : Progressive
Bits/(Pixel*Frame) : 0.150
Stream size : 1.54 GiB (84%)
Title : Tiberiumsun69
Writing library : x264 core 146 r2538 121396c
Encoding settings : cabac=1 / ref=4 / deblock=1:0:0 / analyse=0x3:0x113 / me=umh / subme=9 / psy=1 / psy_rd=1.00:0.10 / mixed_ref=1 / me_range=32 / chroma_me=1 / trellis=2 / 8x8dct=1 / cqm=0 / deadzone=21,11 / fast_pskip=0 / chroma_qp_offset=-3 / threads=12 / lookahead_threads=3 / sliced_threads=0 / nr=0 / decimate=1 / interlaced=0 / bluray_compat=0 / constrained_intra=0 / bframes=16 / b_pyramid=2 / b_adapt=2 / b_bias=0 / direct=3 / weightb=1 / open_gop=0 / weightp=2 / keyint=600 / keyint_min=59 / scenecut=40 / intra_refresh=0 / rc_lookahead=60 / rc=2pass / mbtree=1 / bitrate=5300 / ratetol=1.0 / qcomp=0.60 / qpmin=0 / qpmax=69 / qpstep=4 / cplxblur=20.0 / qblur=0.5 / vbv_maxrate=50000 / vbv_bufsize=62500 / nal_hrd=none / filler=0 / ip_ratio=1.40 / aq=1:1.00
Language : English
Default : Yes
Forced : No
Audio #1
ID : 2
Format : AC-3
Format/Info : Audio Coding 3
Mode extension : CM (complete main)
Codec ID : A_AC3
Duration : 42mn 36s
Bit rate mode : Constant
Bit rate : 192 Kbps
Channel(s) : 2 channels
Channel positions : Front: L R
Sampling rate : 48.0 KHz
Bit depth : 16 bits
Compression mode : Lossy
Stream size : 58.5 MiB (3%)
Title : Дубляж
Language : Russian
Default : Yes
Forced : No
Audio #2
ID : 3
Format : AC-3
Format/Info : Audio Coding 3
Mode extension : CM (complete main)
Codec ID : A_AC3
Duration : 42mn 36s
Bit rate mode : Constant
Bit rate : 640 Kbps
Channel(s) : 6 channels
Channel positions : Front: L C R, Side: L R, LFE
Sampling rate : 48.0 KHz
Bit depth : 16 bits
Compression mode : Lossy
Stream size : 195 MiB (10%)
Title : Оригинал
Language : English
Default : No
Forced : No
Text #1
ID : 4
Format : ASS
Codec ID : S_TEXT/ASS
Codec ID/Info : Advanced Sub Station Alpha
Compression mode : Lossless
Title : Форсированные
Language : Russian
Default : Yes
Forced : No
Text #2
ID : 5
Format : ASS
Codec ID : S_TEXT/ASS
Codec ID/Info : Advanced Sub Station Alpha
Compression mode : Lossless
Title : Полные
Language : Russian
Default : No
Forced : No
Text #3
ID : 6
Format : ASS
Codec ID : S_TEXT/ASS
Codec ID/Info : Advanced Sub Station Alpha
Compression mode : Lossless
Title : Полные
Language : English
Default : No
Forced : No


Просьба к переливающим на другие сайты, в оформлении указывайте пожалуйста авторство группы



   Похожие торренты   Торрент   Размер 
В этой теме нет новых непрочитанных сообщений. Остаться в Живых / Lost [S01-06] (2004-2010) BDRip-AVC

10 | 27

111.67 ГБ

В этой теме нет новых непрочитанных сообщений. Остаться в Живых / Lost [S01-06] (2004-2010) BDRip | DUB

182 | 508

71.22 ГБ

В этой теме нет новых непрочитанных сообщений. Остаться в живых / Потерянные / LOST [S01-06] (2004-2010) BDRip

9 | 24

102.78 ГБ

В этой теме нет новых непрочитанных сообщений. Остаться в живых / Lost [S01-06] (2004-2010) BDRip 720p

40 | 282

188.7 ГБ

В этой теме нет новых непрочитанных сообщений. Остаться в живых / Lost [S01-06] (2004-2010) BDRip | D | Первый канал

443 | 844

42.08 ГБ

В этой теме нет новых непрочитанных сообщений. Остаться в Живых / Lost [S01-06] (2004-2010) Blu-Ray Remux 1080p | D

9 | 179

853.35 ГБ

В этой теме нет новых непрочитанных сообщений. Остаться в живых / Lost [S01-06 + Эпилог] (2004-2010) HDRip от Generalfilm | КПК | D

85 | 234

23.17 ГБ




Вы не можете начинать темы
Вы не можете отвечать на сообщения
Вы не можете редактировать свои сообщения
Вы не можете удалять свои сообщения
Вы не можете добавлять вложения

Перейти:  
Для Мосгорсуда, Роскомнадзора и рекламодателей: mosgorsud-torrent[собачка]yandex.ru
 Вход
ppkBB3cker v.2 © 2008-2014 @ PPK
[ Time : 0.043s | 13 Queries | GZIP : Off ]
CGP output time : 0.023s | 5 Queries | GZIP : Off

Торрент трекер RUTOR.IN, Не можете зайти на rutor.org? Какой новый адрес рутор? Какое зеркало рутор? Не работает rutor.org и зеркала? Тогда наш торрент специально для вас. Rutor.in неофициальное зеркало rutor. В случае если у Вас заблокирован rutor или вдруг Вы не можете на него зайти, то Вы без труда сможете скачать бесплатно и без рекламы последние новинки кино, игр, сериалов и прочего у нас, на Rutor.in. Не нужно использовать прокси, чтобы зайти на рутор, достаточно воспользоваться нашим ресурсом. Все новые фильмы, игры, сериалы, книги и музыка за 2013 и 2014 годы через торрент бесплатно. Скачивайте фильмы в хорошем качестве, игры для пк, xbox, playstation без регистрации. У нас вы найдете новые Зарубежные сериалы и Русские сериалы 2013, 2014, 2015 годов. Оставайтесь с нами, качайте любимые фильмы, игры, сериалы, книги и музыку.