img image001 image001 image001 image001 image001 image001 image001 image001 image001 image001 image001 image001 image001 image001 image001

Planets Sun Sun Sun
Статистика раздачи
Автор: Nickolas3434 | Размер: 7.91 ГБ | Добавлен: 22 авг 2015
Раздают: 126    Качают: 43
Скачать торрент
Скачать торрент
Описание торрента

СообщениеДобавлено: 22 авг 2015 

Название: Фалько
Оригинальное название: Falco
Год выпуска: 2013
Страна: Франция
Жанр: Детектив, драма
Продолжительность: 54 мин
Перевод: Любительский (двухголосый закадровый) Vicotry-Films
Режиссёр: Robert Dannenberg, Stefan Scheich
В ролях: Sagamore Stévenin - Александр Фалько, Clément Manuel - Ромэн Шевалье, Alexia Barlier - Эва Блюм, Mathilde Lebrequier - Кароль Сарда-Фалько, Arno Chevrier - Жан-Поль Менар
Описание: Фалько открывает глаза на больничной койке. Ему кажется, что прошло несколько дней. Но он провел в коме 22 года. Времена изменились. Его жена устроила свою жизнь. Его дочь выросла. На работе его отправили в отставку. Мир Фалько разрушился. Выйдя из больницы, Фалько решает начать свою жизнь с чистого листа.

Доп. информация: Перевод - Полина Котова (Seabiscuit)
Сэмпл: http://sendfile.su/1147378
Качество: HDTV 720p
Контейнер: MKV
Видео: AVC 1280x720 25.000 4862 Kbps
Аудио: Русский AC-3 48.0 KHz 2 channels 192 Kbps
Субтитры: отсутствуют
General
Format : Matroska
Format version : Version 4 / Version 2
File size : 1.96 GiB
Duration : 54mn 22s
Overall bit rate : 5 157 Kbps
Encoded date : UTC 2015-08-20 08:14:44
Writing application : mkvmerge v6.0.0 ('Coming Up For Air') built on Jan 20 2013 09:52:00
Writing library : libebml v1.3.0 + libmatroska v1.4.0
Video
ID : 1
Format : AVC
Format/Info : Advanced Video Codec
Format profile : Main@L3.1
Format settings, CABAC : Yes
Format settings, ReFrames : 1 frame
Codec ID : V_MPEG4/ISO/AVC
Duration : 54mn 22s
Bit rate : 4 862 Kbps
Width : 1 280 pixels
Height : 720 pixels
Display aspect ratio : 16:9
Frame rate mode : Constant
Frame rate : 25.000 fps
Color space : YUV
Chroma subsampling : 4:2:0
Bit depth : 8 bits
Scan type : Progressive
Bits/(Pixel*Frame) : 0.211
Stream size : 1.85 GiB (94%)
Default : Yes
Forced : No
Audio
ID : 2
Format : AC-3
Format/Info : Audio Coding 3
Mode extension : CM (complete main)
Format settings, Endianness : Big
Codec ID : A_AC3
Duration : 54mn 22s
Bit rate mode : Constant
Bit rate : 192 Kbps
Channel(s) : 2 channels
Channel positions : Front: L R
Sampling rate : 48.0 KHz
Bit depth : 16 bits
Compression mode : Lossy
Stream size : 74.7 MiB (4%)
Language : Russian
Default : Yes
Forced : No





   Похожие торренты   Торрент   Размер 
В этой теме нет новых непрочитанных сообщений. Фалько / Falco [01х01-06 из 06] (2013) HDTV 720p | L

1240 | 39

12.42 ГБ

В этой теме нет новых непрочитанных сообщений. Фалько / Falco [s01] (2013) TVRip | Sub

65 | 16

3.23 ГБ

В этой теме нет новых непрочитанных сообщений. Фалько / Falco [S02] (2014) TVRip | L1

75 | 41

4.37 ГБ

В этой теме нет новых непрочитанных сообщений. Фалько / Falco [02x01-04 из 06] (2014) TVRip | L1

46 | 8

2.94 ГБ

В этой теме нет новых непрочитанных сообщений. Гранчестер / Grantchester [02x01-03 из 06] (2016) HDTV 720p от Victory-Films | L2

31 | 28

2.31 ГБ

В этой теме нет новых непрочитанных сообщений. Винтер / Winter [S01] (2015) HDTV 720p от Studio Victory-Films | L

3 | 7

8.6 ГБ

В этой теме нет новых непрочитанных сообщений. Гранчестер / Grantchester [02x01-02 из 06] (2016) HDTV 720p от Victory-Films | L2

83 | 115

1.55 ГБ




Вы не можете начинать темы
Вы не можете отвечать на сообщения
Вы не можете редактировать свои сообщения
Вы не можете удалять свои сообщения
Вы не можете добавлять вложения

Перейти:  
Для Мосгорсуда, Роскомнадзора и рекламодателей: mosgorsud-torrent[собачка]yandex.ru
 Вход
ppkBB3cker v.2 © 2008-2014 @ PPK
[ Time : 0.042s | 16 Queries | GZIP : Off ]

Торрент трекер RUTOR.IN, Не можете зайти на rutor.org? Какой новый адрес рутор? Какое зеркало рутор? Не работает rutor.org и зеркала? Тогда наш торрент специально для вас. Rutor.in неофициальное зеркало rutor. В случае если у Вас заблокирован rutor или вдруг Вы не можете на него зайти, то Вы без труда сможете скачать бесплатно и без рекламы последние новинки кино, игр, сериалов и прочего у нас, на Rutor.in. Не нужно использовать прокси, чтобы зайти на рутор, достаточно воспользоваться нашим ресурсом. Все новые фильмы, игры, сериалы, книги и музыка за 2013 и 2014 годы через торрент бесплатно. Скачивайте фильмы в хорошем качестве, игры для пк, xbox, playstation без регистрации. У нас вы найдете новые Зарубежные сериалы и Русские сериалы 2013, 2014, 2015 годов. Оставайтесь с нами, качайте любимые фильмы, игры, сериалы, книги и музыку.