img image001 image001 image001 image001 image001 image001 image001 image001 image001 image001 image001 image001 image001 image001 image001

Planets Sun Sun Sun
Статистика раздачи
Автор: Nickolas3434 | Размер: 181.94 ГБ | Добавлен: 22 авг 2015, 18:47
Раздают: 75    Качают: 69
Скачать торрент
Скачать торрент
Описание торрента

СообщениеДобавлено: 22 авг 2015, 18:47 

Информация о фильме
Название: Спрут
Оригинальное название: La piovra
Год выхода: 1984 - 2001
Жанр: драма, мелодрама, криминал
Режиссер: Дамиано Дамиани, Луиджи Перелли
В ролях: Микеле Плачидо, Барбара Де Росси, Патриция Милларде, Ремо Джироне, Николь Жаме, Анджело Инфанти, Пино Колицци, Ренато Мори, Эурилла дель Боно, Каридди Нардулли
О фильме:
В небольшом сицилийском городке убивают начальника уголовного розыска Маринео. Кажется, что это преступление мафии. В тот же день становится известно еще об одной смерти. Покончила с собой маркиза Печчи Шалойя.
На место убитого комиссара назначают Коррадо Каттани, опытного полицейского, который переезжает на Сицилию с женой и дочерью. Расследуя убийство предшественника, Коррадо знакомится с наркоманкой Титти Печчи Шалойя и постепенно в нее влюбляется. Вскоре ему удается нащупать скрытую связь между убийством Маринео и самоубийством маркизы…



Страна: Италия, Франция, Великобритания, Германия
Студия: Channel 4, Escort Cine TV, RAI Rete 1 TV, Télécip, Taurus Film
Продолжительность: 10 x 400 мин.
Перевод: профессиональный (многоголосый, закадровый)

Файл
Кодек: MPEG2
Качество: 24 x DVD9, DVD5
Видео: PAL 4:3 (720x576@768x576) VBR 7000 Kbps, 25.000 fps
Аудио 1: Dolby AC3, 2 ch, 48.0 KHz, 192 Kbps (русский ЦТ СССР/ОРТ)
Аудио 2: Dolby AC3, 2 ch, 48.0 KHz, 192 Kbps (русский РТР)
Аудио 3: Dolby AC3, 2 ch, 48.0 KHz, 192 Kbps (итальянский)
Субтитры: итальянские

Общее
Полное имя : D:La Piovra (full serials)VIDEO_TS_1VTS_02_1.VOB
Формат : MPEG-PS
Размер файла : 1024 Мбайт
Продолжительность : 18 м.
Режим общего битрейта : Переменный
Общий поток : 7705 Кбит/сек
Видео
Идентификатор : 224 (0xE0)
Формат : MPEG Video
Версия формата : Version 2
Профиль формата : Main@Main
Параметр BVOP формата : Да
Параметр матрицы формата : Выборочная
Параметр GOP формата : M=3, N=15
Структура изображения : Frame
Продолжительность : 18 м.
Вид битрейта : Переменный
Битрейт : 7000 Кбит/сек
Ширина : 720 пикселей
Высота : 576 пикселей
Соотношение сторон : 4:3
Частота кадров : 25,000 кадров/сек
Стандарт вещания : PAL
Цветовое пространство : YUV
Субдискретизация насыщенности : 4:2:0
Битовая глубина : 8 бит
Тип развёртки : Чересстрочная
Порядок развёртки : Верхнее поле первое
Метод сжатия : С потерями
Бит/(Пиксели*Кадры) : 0.675
Временной код первого кадра : 00:00:40:05
Оригинал временного кода : Group of pictures header
GOP, открыто/закрыто : Закрыто
Размер потока : 927 Мбайт (91%)
Аудио #1
Идентификатор : 189 (0xBD)-128 (0x80)
Формат : AC-3
Формат/Информация : Audio Coding 3
Расширение режима : CM (complete main)
Параметр Endianness формата : Big
Режим смешивания : DVD-Video
Продолжительность : 18 м.
Вид битрейта : Постоянный
Битрейт : 192 Кбит/сек
Каналы : 2 канала
Расположение каналов : Front: L R
Частота : 48,0 КГц
Битовая глубина : 16 бит
Метод сжатия : С потерями
Размер потока : 25,5 Мбайт (2%)
Аудио #2
Идентификатор : 189 (0xBD)-129 (0x81)
Формат : AC-3
Формат/Информация : Audio Coding 3
Расширение режима : CM (complete main)
Параметр Endianness формата : Big
Режим смешивания : DVD-Video
Продолжительность : 18 м.
Вид битрейта : Постоянный
Битрейт : 192 Кбит/сек
Каналы : 2 канала
Расположение каналов : Front: L R
Частота : 48,0 КГц
Битовая глубина : 16 бит
Метод сжатия : С потерями
Размер потока : 25,5 Мбайт (2%)
Аудио #3
Идентификатор : 189 (0xBD)-130 (0x82)
Формат : AC-3
Формат/Информация : Audio Coding 3
Расширение режима : CM (complete main)
Параметр Endianness формата : Big
Режим смешивания : DVD-Video
Продолжительность : 18 м.
Вид битрейта : Постоянный
Битрейт : 192 Кбит/сек
Каналы : 2 канала
Расположение каналов : Front: L R
Частота : 48,0 КГц
Битовая глубина : 16 бит
Метод сжатия : С потерями
Размер потока : 25,5 Мбайт (2%)
Текст
Идентификатор : 189 (0xBD)-32 (0x20)
Формат : RLE
Формат/Информация : Run-length encoding
Режим смешивания : DVD-Video
Меню




   Похожие торренты   Торрент   Размер 
В этой теме нет новых непрочитанных сообщений. Спрут / La Piovra [10 сезонов из 10] (1984-1999) DVDRip

239 | 99

35.58 ГБ

В этой теме нет новых непрочитанных сообщений. Спрут / La Piovra [S06] (1984-1992) DVDRip

80 | 73

23.92 ГБ

В этой теме нет новых непрочитанных сообщений. Макс Пеин 2: Спрут / Max Payne 2: Sprut (2007) PC | RePack by Mister@XaM

181 | 11

672.78 МБ

В этой теме нет новых непрочитанных сообщений. Груз без маркировки (1984) DVD5

0 | 9

4.02 ГБ

В этой теме нет новых непрочитанных сообщений. Гостья из будущего (1984) DVD5

47 | 6

3.89 ГБ

В этой теме нет новых непрочитанных сообщений. И вот пришел Бумбо... (1984) DVD5

0 | 3

3.3 ГБ

В этой теме нет новых непрочитанных сообщений. Формула любви (1984) DVD5

7 | 2

4.15 ГБ




Вы не можете начинать темы
Вы не можете отвечать на сообщения
Вы не можете редактировать свои сообщения
Вы не можете удалять свои сообщения
Вы не можете добавлять вложения

Перейти:  
Для Мосгорсуда, Роскомнадзора и рекламодателей: mosgorsud-torrent[собачка]yandex.ru
Настройки
ppkBB3cker v.2 © 2008-2014 @ PPK
[ Time : 0.065s | 15 Queries | GZIP : Off ]
CGP [Extreme] output time : 0.00012s | 0 Queries | GZIP : Off

Торрент трекер RUTOR.IN, Не можете зайти на rutor.org? Какой новый адрес рутор? Какое зеркало рутор? Не работает rutor.org и зеркала? Тогда наш торрент специально для вас. Rutor.in неофициальное зеркало rutor. В случае если у Вас заблокирован rutor или вдруг Вы не можете на него зайти, то Вы без труда сможете скачать бесплатно и без рекламы последние новинки кино, игр, сериалов и прочего у нас, на Rutor.in. Не нужно использовать прокси, чтобы зайти на рутор, достаточно воспользоваться нашим ресурсом. Все новые фильмы, игры, сериалы, книги и музыка за 2013 и 2014 годы через торрент бесплатно. Скачивайте фильмы в хорошем качестве, игры для пк, xbox, playstation без регистрации. У нас вы найдете новые Зарубежные сериалы и Русские сериалы 2013, 2014, 2015 годов. Оставайтесь с нами, качайте любимые фильмы, игры, сериалы, книги и музыку.