img image001 image001 image001 image001 image001 image001 image001 image001 image001 image001 image001 image001 image001 image001 image001

Planets Sun Sun Sun
Статистика раздачи
Автор: Nickolas3434 | Размер: 4.36 ГБ | Добавлен: 24 авг 2015
Раздают: 713    Качают: 118
Скачать торрент
Скачать торрент
Описание торрента

СообщениеДобавлено: 24 авг 2015 


Информация о фильме
Оригинальное название: Крик совы / Особые полномочия
Год выпуска: 2013
Жанр: Детектив
Режиссер: Олег Погодин
В ролях: Сергей Пускепалис, Андрей Мерзликин, Мария Миронова, Евгений Дятлов, Андрей Феськов, Анатолий Васильев, Игорь Савочкин, Серафима Низовская, Василий Бочкарёв, Сергей Юшкевич, Наталья Высочанская, Александр Марушев, Евгения Дмитриева, Эрнст Романов, Эра Зиганшина, Евгений Ганелин, Николай Харитонов, Владимир Матвеев, Анна Уколова, Олег Алмазов, Александр Нестеров, Наталья Данилова, Аркадий Волгин, Сергей Барковский, Наталья Ткаченко, Анатолий Горин, Геннадий Алимпиев и др.
О фильме: 1957 год, время хрущевской "оттепели". Городок Остров Псковской области сотрясает череда дерзких преступлений. При стычке бандитов с правоохранительными органами тяжело ранен один из лучших сотрудников местной милиции – капитан Юрий Сиротин. В бессознательном состоянии он разговаривает по-немецки, что приводит к служебному расследованию, которое поручено вести сотруднику областного ГБ Ивану Митину. В Острове ему приходится взаимодействовать с майором милиции Андреем Балахниным – лучшим другом подозреваемого Сиротина. Балахнин и Митин, не слишком симпатизирующие друг другу, влюбляются в одну женщину – работницу почты Нину. Расследование вытаскивает на свет множество мучительных тайн, которыми пронизана жизнь обитателей Острова со времен войны.
Страна: Россия
Студия: "Щука", ФАБЕРЖЕ ПРОДАКШН
Продолжительность: 10 х ~00:51:30
Перевод: Не требуется
Файл
Формат: avi
Качество: WEB-DLRip
Видео: XviD, 688x384, ~1060 kbps, 25.000 fps
Аудио: MP3, 44.1 KHz, 2 ch, 128 Kbps
Общее
Полное имя : D:Kinozal.TVKrik.Sovy.2013.XviD.WEB-DLRip.by.GeneralFilm\01.seriya.avi
Формат : AVI
Формат/Информация : Audio Video Interleave
Размер файла : 446 Мбайт
Продолжительность : 51 м.
Общий поток : 1198 Кбит/сек
Программа кодирования : VirtualDubMod 1.5.10.3 | www.virtualdub-fr.org || (build 2550/release)
Библиотека кодирования : VirtualDubMod build 2550/release
Видео
Идентификатор : 0
Формат : MPEG-4 Visual
Профиль формата : Advanced Simple@L5
Параметр BVOP формата : 1
Параметр QPel формата : Нет
Параметр GMC формата : Без точки перехода
Параметр матрицы формата : Выборочная
Идентификатор кодека : XVID
Идентификатор кодека/Подсказка : XviD
Продолжительность : 51 м.
Битрейт : 1061 Кбит/сек
Ширина : 688 пикселей
Высота : 384 пикселя
Соотношение сторон : 16:9
Частота кадров : 25,000 кадров/сек
Цветовое пространство : YUV
Субдискретизация насыщенности : 4:2:0
Битовая глубина : 8 бит
Тип развёртки : Прогрессивная
Метод сжатия : С потерями
Бит/(Пиксели*Кадры) : 0.161
Размер потока : 394 Мбайт (89%)
Библиотека кодирования : XviD 73
Аудио
Идентификатор : 1
Формат : MPEG Audio
Версия формата : Version 1
Профиль формата : Layer 3
Идентификатор кодека : 55
Идентификатор кодека/Подсказка : MP3
Продолжительность : 51 м.
Вид битрейта : Постоянный
Битрейт : 128 Кбит/сек
Каналы : 2 канала
Частота : 44,1 КГц
Метод сжатия : С потерями
Размер потока : 47,6 Мбайт (11%)
Выравнивание : Разделение по промежуткам
Продолжительность промежутка : 40 мс. (1,00 видеокадр)
Время предзагрузки промежутка : 500 мс.
Библиотека кодирования : LAME3.99r
Настройки программы : -m s -V 4 -q 0 -lowpass 17 -b 128









Релиз от:



   Похожие торренты   Торрент   Размер 
В этой теме нет новых непрочитанных сообщений. Крик совы / Особые полномочия [01-10 из 10] (2013) WEB-DLRip от Generalfilm | КПК

325 | 72

2.28 ГБ

В этой теме нет новых непрочитанных сообщений. Крик совы / Особые полномочия [01-10 из 10] (2013) WEB-DLRip-AVC от ExKinoRay

77 | 30

7.33 ГБ

В этой теме нет новых непрочитанных сообщений. Крик совы (Особые полномочия) [01-10 из 10] (2013) WEB-DL 1080p

97 | 15

15.2 ГБ

В этой теме нет новых непрочитанных сообщений. Крик совы / Особые полномочия [01-10 из 10] (2013) HDTVRip-AVC 1080p

21 | 6

19.8 ГБ

В этой теме нет новых непрочитанных сообщений. Крик совы [01-10 из 10] (2013) HDTVRip-AVC

567 | 111

5.92 ГБ

В этой теме нет новых непрочитанных сообщений. Крик совы [01-10 из 10] (2013) WEB-DL (720p) от ExKinoRay

23 | 6

9.73 ГБ

В этой теме нет новых непрочитанных сообщений. Крик совы [01-10 из 10] (2013) SATRip от MediaClub | КПК

70 | 11

2.56 ГБ




Вы не можете начинать темы
Вы не можете отвечать на сообщения
Вы не можете редактировать свои сообщения
Вы не можете удалять свои сообщения
Вы не можете добавлять вложения

Перейти:  
Для Мосгорсуда, Роскомнадзора и рекламодателей: mosgorsud-torrent[собачка]yandex.ru
 Вход
ppkBB3cker v.2 © 2008-2014 @ PPK
[ Time : 0.045s | 18 Queries | GZIP : Off ]

cron