img image001 image001 image001 image001 image001 image001 image001 image001 image001 image001 image001 image001 image001 image001 image001

Planets Sun Sun Sun
Статистика раздачи
Автор: Nickolas3434 | Размер: 2.74 ГБ | Добавлен: 01 сен 2015
Раздают: 1379    Качают: 241
Скачать торрент
Скачать торрент
Описание торрента

СообщениеДобавлено: 01 сен 2015 


Информация о фильме
Оригинальное название: С любимыми не расстаются
Год выпуска: 2015
Жанр: Мелодрама
Режиссер: Екатерина Двигубская
В ролях: Марина Ворожищева, Алексей Янин, Андрей Сенькин, Татьяна Чердынцева, Дмитрий Гладков, Зоя Антонова, Юлианна Михневич
О фильме:
Михаил покинул родной провинциальный городок и отправился в столицу в поисках работы. На прощание он обещал своей невесте Татьяне, что, как только освоится в Москве, обязательно за ней вернется. Однако большой город с его безграничными возможностями внес свои коррективы в планы молодого человека. Деньги и стремительный карьерный рост вскружили Мише голову, и он забыл Таню. Спустя несколько лет у него появляется шанс исправить свою ошибку, но смогут ли герои сериала «С любимыми не расстаются» возродить былые отношения?
Страна: Россия
Студия: Кинокомпания "Паламеда Продакшн"
Продолжительность: 2 x ~ 01:32:00
Язык: Русский
СЕМПЛ
Файл
Качество: HDTVRip
Видео: 720x400 (1.80:1), 25 fps, XviD build 73 ~1899 kbps avg, 0.22 bit/pixel
Аудио: 48 kHz, AC3 Dolby Digital, 2/0 (L,R) ch, ~192.00 kbps avg
General
Complete name : Y:раздачиС любимыми не расстаются.2015.HDTVRip.RG.Russkie.serialy.&.Files-x\01.С любимыми не расстаются.2015.HDTVRip.RG.Russkie.serialy.&.Files-x.avi
Format : AVI
Format/Info : Audio Video Interleave
File size : 1.37 GiB
Duration : 1h 31mn
Overall bit rate : 2 152 Kbps
Writing application : VirtualDubMod 1.5.10.3 | www.virtualdub-fr.org || (build 2550/release)
Writing library : VirtualDubMod build 2550/release
Video
ID : 0
Format : MPEG-4 Visual
Format profile : Advanced Simple@L5
Format settings, BVOP : 1
Format settings, QPel : No
Format settings, GMC : No warppoints
Format settings, Matrix : Custom
Codec ID : XVID
Codec ID/Hint : XviD
Duration : 1h 31mn
Bit rate : 1 950 Kbps
Width : 720 pixels
Height : 400 pixels
Display aspect ratio : 16:9
Frame rate : 25.000 fps
Color space : YUV
Chroma subsampling : 4:2:0
Bit depth : 8 bits
Scan type : Progressive
Compression mode : Lossy
Bits/(Pixel*Frame) : 0.271
Stream size : 1.24 GiB (91%)
Writing library : XviD 73
Audio
ID : 1
Format : AC-3
Format/Info : Audio Coding 3
Mode extension : CM (complete main)
Format settings, Endianness : Big
Codec ID : 2000
Duration : 1h 31mn
Bit rate mode : Constant
Bit rate : 192 Kbps
Channel(s) : 2 channels
Channel positions : Front: L R
Sampling rate : 48.0 KHz
Compression mode : Lossy
Stream size : 125 MiB (9%)
Alignment : Split accross interleaves
Interleave, duration : 40 ms (1.00 video frame)
Interleave, preload duration : 500 ms
.



Релиз от:



   Похожие торренты   Торрент   Размер 
В этой теме нет новых непрочитанных сообщений. С любимыми не расстаются [01 из 04] (2015) DVB от Files-x

183 | 43

4 ГБ

В этой теме нет новых непрочитанных сообщений. С любимыми не расстаются [01-02 из 02] (2015) HDTVRip-AVC

167 | 13

2.75 ГБ

В этой теме нет новых непрочитанных сообщений. С любимыми не расстаются [01-02 из 02] (2015) HDTVRip 720p от MediaClub

121 | 21

7.39 ГБ

В этой теме нет новых непрочитанных сообщений. С любимыми не расстаются [01-04 из 04] (2015) SATRip от Рипер АМ

1296 | 356

2.45 ГБ

В этой теме нет новых непрочитанных сообщений. С любимыми не расстаются [01-02 из 04] (2015) SATRip от Рипер АМ

71 | 12

1.2 ГБ

В этой теме нет новых непрочитанных сообщений. С любимыми не расстаются [01-02 из 02] (2015) HDTV 1080i

43 | 14

10.96 ГБ

В этой теме нет новых непрочитанных сообщений. Олег Газманов - Не прощайтесь с любимыми (2015) MP3

324 | 12

92.72 МБ




Вы не можете начинать темы
Вы не можете отвечать на сообщения
Вы не можете редактировать свои сообщения
Вы не можете удалять свои сообщения
Вы не можете добавлять вложения

Перейти:  
Для Мосгорсуда, Роскомнадзора и рекламодателей: mosgorsud-torrent[собачка]yandex.ru
 Вход
ppkBB3cker v.2 © 2008-2014 @ PPK
[ Time : 0.039s | 15 Queries | GZIP : On ]

Торрент трекер RUTOR.IN, Не можете зайти на rutor.org? Какой новый адрес рутор? Какое зеркало рутор? Не работает rutor.org и зеркала? Тогда наш торрент специально для вас. Rutor.in неофициальное зеркало rutor. В случае если у Вас заблокирован rutor или вдруг Вы не можете на него зайти, то Вы без труда сможете скачать бесплатно и без рекламы последние новинки кино, игр, сериалов и прочего у нас, на Rutor.in. Не нужно использовать прокси, чтобы зайти на рутор, достаточно воспользоваться нашим ресурсом. Все новые фильмы, игры, сериалы, книги и музыка за 2013 и 2014 годы через торрент бесплатно. Скачивайте фильмы в хорошем качестве, игры для пк, xbox, playstation без регистрации. У нас вы найдете новые Зарубежные сериалы и Русские сериалы 2013, 2014, 2015 годов. Оставайтесь с нами, качайте любимые фильмы, игры, сериалы, книги и музыку.