img image001 image001 image001 image001 image001 image001 image001 image001 image001 image001 image001 image001 image001 image001 image001

Planets Sun Sun Sun
Статистика раздачи
Автор: Nickolas3434 | Размер: 6.16 ГБ | Добавлен: 11 сен 2015
Раздают: 291    Качают: 190
Скачать торрент
Скачать торрент
Описание торрента

СообщениеДобавлено: 11 сен 2015 




Информация о фильме
Жанр: криминал
Режиссер: Александр Даруга, Марат Ким
Актеры: Владимир Епифанцев, Ирина Розанова, Владимир Юматов, Марина Коняшкина, Андрей Носков, Жанна Эппле, Михаил Тарабукин, Мария Козлова, Иван Мацкевич, Алексей Даруга
Описание:
Когда в преступлениях замешана верхушка правящей элиты, а заказчиками оказываются представители властных структур, слишком многие заинтересованы в том, чтобы следствие поскорее было закрыто, а истинные виновные никогда не были найдены. Тем более что по официальным данным, коррупции в СССР не было. Многочисленные факты взяточничества, злоупотреблений властью, "сращивания" чиновничьего аппарата с криминалом и фальсификации судебных дел не предавались огласке. Однако в 80-е годы были выявлены и обнародованы данные о грандиозных по масштабу преступлениях, которые прогремели на всю страну.

Производство: Россия, "СВЭЛЛ фильм"
Дата Российской премьеры: 7 сентября 2015
Продолжительность: ~ 00:44:00 серия
Файл
Качество видео: HDTVRip-AVC
Видео: High@L4.1, 1024x572, ~1700 kb/s
Аудио: AC3, 2 ch, 192 kb/s


General
Unique ID : 1253990837832207388279115306470668050 (0xF182858F3DEE00B1E7FC70747EF712)
Complete name : E:СериалыНеподкупный [16] (2015) HDTVRIP_AVCNepodkupnyj.(01.seriya.iz.16).2015.HDTVRIP_AVC.[-=DoMiNo=-].mkv
Format : Matroska
Format version : Version 4 / Version 2
File size : 610 MiB
Duration : 44mn 12s
Overall bit rate : 1 930 Kbps
Writing application : XviD4PSP 7.0.170
Writing library : Lavf56.25.101
ENCODING_INFO : MPEGTS > MKV / H264 > X264 CRF 19.0 Custom / MP2 > AC3 CBR 192kbps
Video
ID : 1
Format : AVC
Format/Info : Advanced Video Codec
Format profile : High@L4.1
Format settings, CABAC : Yes
Format settings, ReFrames : 12 frames
Codec ID : V_MPEG4/ISO/AVC
Duration : 44mn 12s
Bit rate : 1 700 Kbps
Width : 1 024 pixels
Height : 572 pixels
Display aspect ratio : 16:9
Frame rate mode : Constant
Frame rate : 25.000 fps
Color space : YUV
Chroma subsampling : 4:2:0
Bit depth : 8 bits
Scan type : Progressive
Bits/(Pixel*Frame) : 0.116
Stream size : 537 MiB (88%)
Writing library : x264 core 148 r2597M e86f3a1
Encoding settings : cabac=1 / ref=12 / deblock=1:-3:-3 / analyse=0x3:0x133 / me=umh / subme=10 / psy=1 / psy_rd=1.00:0.10 / mixed_ref=1 / me_range=32 / chroma_me=1 / trellis=2 / 8x8dct=1 / cqm=0 / deadzone=21,11 / fast_pskip=0 / chroma_qp_offset=-3 / threads=5 / lookahead_threads=1 / sliced_threads=0 / nr=0 / decimate=1 / interlaced=0 / bluray_compat=0 / constrained_intra=0 / bframes=11 / b_pyramid=2 / b_adapt=2 / b_bias=0 / direct=1 / weightb=1 / open_gop=0 / weightp=2 / keyint=250 / keyint_min=25 / scenecut=40 / intra_refresh=0 / rc=crf / mbtree=0 / crf=19.0 / qcomp=0.60 / qpmin=19 / qpmax=69 / qpstep=4 / ip_ratio=1.40 / pb_ratio=1.30 / aq=1:1.00
Default : Yes
Forced : No
Color range : Limited
Color primaries : BT.709
Transfer characteristics : BT.709
Matrix coefficients : BT.709
Audio
ID : 2
Format : AC-3
Format/Info : Audio Coding 3
Mode extension : CM (complete main)
Format settings, Endianness : Big
Codec ID : A_AC3
Duration : 44mn 12s
Bit rate mode : Constant
Bit rate : 192 Kbps
Channel(s) : 2 channels
Channel positions : Front: L R
Sampling rate : 48.0 KHz
Bit depth : 16 bits
Compression mode : Lossy
Delay relative to video : 27ms
Stream size : 60.7 MiB (10%)
Language : English
Default : Yes
Forced : No







   Похожие торренты   Торрент   Размер 
В этой теме нет новых непрочитанных сообщений. Неподкупный [01-03 из 16] (2015) HDTVRip-AVC

72 | 5

1.82 ГБ

В этой теме нет новых непрочитанных сообщений. Неподкупный [01-03 из 16] (2015) HDTVRip-AVC

115 | 15

3.7 ГБ

В этой теме нет новых непрочитанных сообщений. Неподкупный [01-02 из 16] (2015) HDTVRip-AVC от Files-x

50 | 21

4.05 ГБ

В этой теме нет новых непрочитанных сообщений. Неподкупный [01-02 из 16] (2015) HDTVRip-AVC от Files-x

59 | 5

2.05 ГБ

В этой теме нет новых непрочитанных сообщений. Неподкупный [01 из 16] (2015) HDTVRip от Files-х

123 | 15

1.61 ГБ

В этой теме нет новых непрочитанных сообщений. Неподкупный [01 из 16] (2015) HDTVRip от Files-х

1428 | 645

5.37 ГБ

В этой теме нет новых непрочитанных сообщений. Неподкупный [01-16 из 16] (2015) HDTVRip от MediaClub | КПК

506 | 115

3.12 ГБ




Вы не можете начинать темы
Вы не можете отвечать на сообщения
Вы не можете редактировать свои сообщения
Вы не можете удалять свои сообщения
Вы не можете добавлять вложения

Перейти:  
Для Мосгорсуда, Роскомнадзора и рекламодателей: mosgorsud-torrent[собачка]yandex.ru
 Вход
ppkBB3cker v.2 © 2008-2014 @ PPK
[ Time : 0.052s | 16 Queries | GZIP : Off ]

Торрент трекер RUTOR.IN, Не можете зайти на rutor.org? Какой новый адрес рутор? Какое зеркало рутор? Не работает rutor.org и зеркала? Тогда наш торрент специально для вас. Rutor.in неофициальное зеркало rutor. В случае если у Вас заблокирован rutor или вдруг Вы не можете на него зайти, то Вы без труда сможете скачать бесплатно и без рекламы последние новинки кино, игр, сериалов и прочего у нас, на Rutor.in. Не нужно использовать прокси, чтобы зайти на рутор, достаточно воспользоваться нашим ресурсом. Все новые фильмы, игры, сериалы, книги и музыка за 2013 и 2014 годы через торрент бесплатно. Скачивайте фильмы в хорошем качестве, игры для пк, xbox, playstation без регистрации. У нас вы найдете новые Зарубежные сериалы и Русские сериалы 2013, 2014, 2015 годов. Оставайтесь с нами, качайте любимые фильмы, игры, сериалы, книги и музыку.
cron