img image001 image001 image001 image001 image001 image001 image001 image001 image001 image001 image001 image001 image001 image001 image001

Planets Sun Sun Sun
Статистика раздачи
Автор: Nickolas3434 | Размер: 1.44 ГБ | Добавлен: 11 сен 2015
Раздают: 86    Качают: 35
Скачать торрент
Скачать торрент
Описание торрента

СообщениеДобавлено: 11 сен 2015 


Информация о фильме
Название: Интерны
Год выхода: 2015
Жанр: Комедия, ситком, медицина
Режиссер: Радда Новикова
В ролях: Иван Охлобыстин, Илья Глинников, Александр Ильин мл., Вадим Демчог, Аглая Тарасова, Юлия Назаренко, Светлана Камынина, Яна Гурьянова, Один Ланд Байрон, Татьяна Лянник, Светлана Пермякова, Азамат Мусагалиев, Александр Ляпин
О фильме:
Жизнь обычной многопрофильной больницы — сплошная рутина. Ненормированный рабочий день, тяжелая, неблагодарная работа, а также инопланетяне, электрики, спивающийся венеролог, озабоченная медсестра, больной-эксгибиционист, ручная крыса, четыре интерна, которые все время расстраивают своего руководителя... Как Иван Охлобыстин в лице доктора Быкова справится со всей этой суетой?
Выпущено: Россия, ТНТ
Продолжительность: 2 х ~ 00:26:00
Перевод: Не требуется
Файл
Кодек: х264
Качество: WEB-DLRip-AVC
Свойства видео: 1024x576 (16:9), 25 fps, x264, 1900 Kbps, 0.129 bit/pixel
Свойства аудио: 48,0 kHz, Audio Coding 3, 2 ch, ~192 kbps avg
Общее
Уникальный идентификатор : 253975518360357704004785521620227867305 (0xBF11E7D51569699B9C5EE99E8BA242A9)
Полное имя : D:ВидеоInterny.(13.sezon).2015.WEB-DLRip-AVC by Vovan366(ExKinoRay)Interny-13.(02.seriya).2015.WEB-DLRip-AVC by Vovan366(ExKinoRay).mkv
Формат : Matroska
Версия формата : Version 2
Размер файла : 374 Мбайт
Продолжительность : 24 м.
Общий поток : 2094 Кбит/сек
Дата кодирования : UTC 2015-09-08 16:05:24
Программа кодирования : mkvmerge v6.1.0 ('Old Devil') built on Mar 4 2013 09:10:42
Библиотека кодирования : libebml v1.3.0 + libmatroska v1.4.0
Видео
Идентификатор : 1
Формат : AVC
Формат/Информация : Advanced Video Codec
Профиль формата : High@L4.1
Параметр CABAC формата : Да
Параметр ReFrames формата : 6 кадров
Идентификатор кодека : V_MPEG4/ISO/AVC
Продолжительность : 24 м.
Битрейт : 1900 Кбит/сек
Ширина : 1024 пикселя
Высота : 576 пикселей
Соотношение сторон : 16:9
Режим частоты кадров : Постоянный
Частота кадров : 25,000 кадров/сек
Цветовое пространство : YUV
Субдискретизация насыщенности : 4:2:0
Битовая глубина : 8 бит
Тип развёртки : Прогрессивная
Бит/(Пиксели*Кадры) : 0.129
Размер потока : 332 Мбайт (89%)
Библиотека кодирования : x264 core 130 r2273 b3065e6
Настройки программы : cabac=1 / ref=6 / deblock=1:-2:-2 / analyse=0x3:0x133 / me=umh / subme=9 / psy=1 / psy_rd=1.00:0.15 / mixed_ref=1 / me_range=32 / chroma_me=1 / trellis=2 / 8x8dct=1 / cqm=0 / deadzone=21,11 / fast_pskip=0 / chroma_qp_offset=-3 / threads=6 / lookahead_threads=1 / sliced_threads=0 / nr=0 / decimate=0 / interlaced=0 / bluray_compat=0 / constrained_intra=0 / bframes=6 / b_pyramid=2 / b_adapt=2 / b_bias=0 / direct=3 / weightb=1 / open_gop=0 / weightp=2 / keyint=250 / keyint_min=25 / scenecut=40 / intra_refresh=0 / rc=2pass / mbtree=0 / bitrate=1900 / ratetol=1.0 / qcomp=0.60 / qpmin=0 / qpmax=69 / qpstep=4 / cplxblur=20.0 / qblur=0.5 / ip_ratio=1.40 / pb_ratio=1.30 / aq=1:1.00
Default : Да
Forced : Нет
Аудио
Идентификатор : 2
Формат : AC-3
Формат/Информация : Audio Coding 3
Расширение режима : CM (complete main)
Параметр Endianness формата : Big
Идентификатор кодека : A_AC3
Продолжительность : 24 м.
Вид битрейта : Постоянный
Битрейт : 192 Кбит/сек
Каналы : 2 канала
Расположение каналов : Front: L R
Частота : 48,0 КГц
Битовая глубина : 16 бит
Метод сжатия : С потерями
Размер потока : 34,3 Мбайт (9%)
Default : Да
Forced : Нет



Релиз от:
Rip by: Vovan366



   Похожие торренты   Торрент   Размер 
В этой теме нет новых непрочитанных сообщений. Интерны [13х01-02 из 20] (2015) WEB-DLRip-AVC от ExKinoRay

39 | 7

745.88 МБ

В этой теме нет новых непрочитанных сообщений. Интерны [13х01-02 из 20] (2015) WEB-DLRip-AVC от ExKinoRay

79 | 56

1.81 ГБ

В этой теме нет новых непрочитанных сообщений. Интерны [13х01-02 из 20] (2015) WEB-DLRip-AVC от ExKinoRay

35 | 8

1.09 ГБ

В этой теме нет новых непрочитанных сообщений. Интерны [13х01-04 из 20] (2015) WEB-DLRip от ivandubskoj

211 | 144

1.71 ГБ

В этой теме нет новых непрочитанных сообщений. Интерны [13х01-03 из 20] (2015) WEB-DLRip-AVC от Files-x

33 | 20

959.19 МБ

В этой теме нет новых непрочитанных сообщений. Интерны [13х01-04 из 20] (2015) WEB-DLRip от ivandubskoj

137 | 72

1.37 ГБ

В этой теме нет новых непрочитанных сообщений. Интерны [13х01-03 из 20] (2015) WEB-DLRip-AVC от Files-x

57 | 123

1.55 ГБ




Вы не можете начинать темы
Вы не можете отвечать на сообщения
Вы не можете редактировать свои сообщения
Вы не можете удалять свои сообщения
Вы не можете добавлять вложения

Перейти:  
Для Мосгорсуда, Роскомнадзора и рекламодателей: mosgorsud-torrent[собачка]yandex.ru
 Вход
ppkBB3cker v.2 © 2008-2014 @ PPK
[ Time : 0.059s | 15 Queries | GZIP : Off ]

cron