img image001 image001 image001 image001 image001 image001 image001 image001 image001 image001 image001 image001 image001 image001 image001

Planets Sun Sun Sun
Статистика раздачи
Автор: Nickolas3434 | Размер: 1.71 ГБ | Добавлен: 11 сен 2015
Раздают: 213    Качают: 147
Скачать торрент
Скачать торрент
Описание торрента

СообщениеДобавлено: 11 сен 2015 


Информация о фильме
Название: Интерны
Год выпуска: 2015
Жанр: Комедия, ситком
Режиссер: Максим Пежемский, Заур Болотаев, Милан Килибарда, Евгений Невский, Радда Новикова
В ролях: Иван Охлобыстин, Кристина Асмус, Илья Глинников, Александр Ильин мл., Дмитрий Шаракоис, Вадим Демчог, Светлана Камынина, Светлана Пермякова, Один Ланд Байрон, Татьяна Лянник, Мария Пирогова, Лидия Арефьева, Максим Артамонов, Михаил Павлик, Татьяна Мухина, Елена Суркова, Екатерина Радченко, Любовь Кондрашова, Александр Туманов, Ольга Алисина, Лариса Крупина, Михаил Петухов, Елена Помазан
О фильме:
юба уже не так занята личной жизнью своих коллег, ведь у нее появилась своя собственная. Алкоголизм Купитмана стал не настолько ярко выраженным, ведь теперь у него появилась дама сердца, которая не только ночью согреет постель, но и перекинется стопочкой – другой со своим кучерявым дерматовенерологом. Быков уже не срывается, как раньше, на всем живом и дышащем, ведь его семейная жизнь с Кисегач сделала мужчину гораздо мягче и лояльней. Романенко больше не шастает по ночным клубам в поисках очередной длинноногой красавицы на одну ночь, ведь его сердце покорила строптивая и непокорная девушка – интерн Софья. Сама же племянница Купитмана в восторге. Еще не так, давно даже не рассчитывая на внимание со стороны Глеба, она полностью меняет его отношение к противоположному полу и получает неожиданное предложение руки и сердца самого заядлого холостяка и ловеласа больницы.

Страна: Россия
Студия: Телеканал ТНТ
Продолжительность: 4 x ~ 00:24:00
Файл
Кодек: XviD
Качество: WEB-DLRip
Видео: XviD, 704x400 (16:9), ~ 1820 Кбит/с, 25 кадр/с, 0.260 bit/pixel
Аудио: Русский, MP3, 48000 Гц, 128 Кбит/с, 2 канала (Стерео)
Субтитры: Нет
При каждом добавлении создётся новый торрент. Чтобы начать докачку новой серии, пользователям необходимо сделать следующее:
1) остановить скачивание,
2) удалить старый торрент у себя из клиента (старые серии удалять не надо),
3) скачать новый торрент и запустить его у себя в клиенте вместо старого, при этом указать клиенту путь в старую папку куда и должно происходить скачивание новых серий.
Ваш клиент при этом должен произвести хеширование (проверку) старой папки (если не производит сам - помогите ему сделать это), и будет докачивать только те серии которых у вас ещё нет. Старые серии при этом не удаляются, а продолжают раздаваться!
Eсли вы уже удалили старые серии, то предотвратить повторную закачку старых серий можно, отжав галочку в соответствующих местах при запуске нового торрента.
General
Complete name : Interny.s13.e01.2015.WEB-DLRip.avi
Format : AVI
Format/Info : Audio Video Interleave
File size : 350 MiB
Duration : 24mn 50s
Overall bit rate : 1 971 Kbps
Writing application : VirtualDubMod 1.5.10.3 | www.virtualdub-fr.org || (build 2550/release)
Writing library : VirtualDubMod build 2550/release
Video
ID : 0
Format : MPEG-4 Visual
Format profile : Advanced Simple@L5
Format settings, BVOP : 1
Format settings, QPel : No
Format settings, GMC : No warppoints
Format settings, Matrix : Custom
Codec ID : XVID
Codec ID/Hint : XviD
Duration : 24mn 50s
Bit rate : 1 834 Kbps
Width : 704 pixels
Height : 400 pixels
Display aspect ratio : 16:9
Frame rate : 25.000 fps
Color space : YUV
Chroma subsampling : 4:2:0
Bit depth : 8 bits
Scan type : Progressive
Compression mode : Lossy
Bits/(Pixel*Frame) : 0.260
Stream size : 326 MiB (93%)
Writing library : XviD 73
Audio
ID : 1
Format : MPEG Audio
Format version : Version 1
Format profile : Layer 3
Codec ID : 55
Codec ID/Hint : MP3
Duration : 24mn 50s
Bit rate mode : Constant
Bit rate : 128 Kbps
Channel(s) : 2 channels
Sampling rate : 48.0 KHz
Compression mode : Lossy
Stream size : 22.8 MiB (6%)
Alignment : Aligned on interleaves
Interleave, duration : 40 ms (1.00 video frame)
Interleave, preload duration : 504 ms
Writing library : LAME3.99r
Encoding settings : -m s -V 4 -q 0 -lowpass 17 -b 128


Автор рипа - ivandubskoj



   Похожие торренты   Торрент   Размер 
В этой теме нет новых непрочитанных сообщений. Интерны [13х01-04 из 20] (2015) WEB-DLRip от ivandubskoj

534 | 292

2.39 ГБ

В этой теме нет новых непрочитанных сообщений. Интерны [13х01-04 из 20] (2015) WEB-DLRip от ivandubskoj

137 | 75

1.37 ГБ

В этой теме нет новых непрочитанных сообщений. Интерны [13х01-02 из 20] (2015) WEB-DLRip-AVC от ExKinoRay

83 | 58

1.81 ГБ

В этой теме нет новых непрочитанных сообщений. Интерны [13х01-02 из 20] (2015) WEB-DLRip-AVC от ExKinoRay

90 | 63

1.44 ГБ

В этой теме нет новых непрочитанных сообщений. Интерны [13х01-03 из 20] (2015) WEB-DLRip-AVC от Files-x

34 | 20

959.19 МБ

В этой теме нет новых непрочитанных сообщений. Интерны [13х01-02 из 20] (2015) WEB-DLRip-AVC от ExKinoRay

39 | 7

745.88 МБ

В этой теме нет новых непрочитанных сообщений. Интерны [13х01-02 из 20] (2015) WEB-DLRip-AVC от ExKinoRay

35 | 8

1.09 ГБ




Вы не можете начинать темы
Вы не можете отвечать на сообщения
Вы не можете редактировать свои сообщения
Вы не можете удалять свои сообщения
Вы не можете добавлять вложения

Перейти:  
Для Мосгорсуда, Роскомнадзора и рекламодателей: mosgorsud-torrent[собачка]yandex.ru
 Вход
ppkBB3cker v.2 © 2008-2014 @ PPK
[ Time : 0.050s | 15 Queries | GZIP : Off ]

Торрент трекер RUTOR.IN, Не можете зайти на rutor.org? Какой новый адрес рутор? Какое зеркало рутор? Не работает rutor.org и зеркала? Тогда наш торрент специально для вас. Rutor.in неофициальное зеркало rutor. В случае если у Вас заблокирован rutor или вдруг Вы не можете на него зайти, то Вы без труда сможете скачать бесплатно и без рекламы последние новинки кино, игр, сериалов и прочего у нас, на Rutor.in. Не нужно использовать прокси, чтобы зайти на рутор, достаточно воспользоваться нашим ресурсом. Все новые фильмы, игры, сериалы, книги и музыка за 2013 и 2014 годы через торрент бесплатно. Скачивайте фильмы в хорошем качестве, игры для пк, xbox, playstation без регистрации. У нас вы найдете новые Зарубежные сериалы и Русские сериалы 2013, 2014, 2015 годов. Оставайтесь с нами, качайте любимые фильмы, игры, сериалы, книги и музыку.