img image001 image001 image001 image001 image001 image001 image001 image001 image001 image001 image001 image001 image001 image001 image001

Planets Sun Sun Sun
Статистика раздачи
Автор: Nickolas3434 | Размер: 3.52 ГБ | Добавлен: 13 сен 2015
Раздают: 80    Качают: 30
Скачать торрент
Скачать торрент
Описание торрента

СообщениеДобавлено: 13 сен 2015 


Информация о фильме
Название: Адвокат. Убийство на Монастырских прудах
Год выхода: 1990
Жанр: Криминальная драма, детектив
Режиссер: Искандер Хамраев
В ролях: Андрей Ташков, Юозас Киселюс, Владимир Меньшов, Михаил Глузский, Майя Булгакова, Виктор Павлов, Денис Сердюков, Ян Пузыревский, Вера Лапшова, Александр Семенов, Даниил Лапигин, Валерий Ивченко, Эрнст Романов, Олег Корчиков, Ольга Агеева, Леонард Варфоломеев, Александр Белина, Алексей Миронов, Вадим Яковлев, Сергей Лосев, Валентина Ананьина, Тамара Тимофеева, Геннадий Нилов, Валентина Пугачёва, Борис Аракелов, Георгий Тейх, Николай Крюков, Эвелина Блёданс
О фильме: В Подмосковье около пруда совершено убийство. Опергруппа обнаруживает группу подростков на мотоциклах, случайно оказавшихся неподалеку от места преступления. Испугавшись, молодые люди разбегаются — и, тем самым, навлекают на себя подозрение. Одному из них — Варенцову — предъявлено обвинение. Невиновность его доказана в суде, но приезжает новый следователь и фабрикует еще одно «дело», после чего Варенцова приговаривают к расстрелу. Распутывая клубок несправедливостей, молодой адвокат помогает подростку избежать расстрела…
Страна: СССР
Продолжительность: 3 x ~ 01:06:00
Перевод: не требуется
Файл
Кодек: x264
Качество: SATRip-AVC
Видео: MPEG-4 AVC, 2300 Кбит/с, 720x572@768x572
Звук: AC3, 2 ch, 192 Кбит/с

Общее
Уникальный идентификатор : 225929229850628951560101998085191970155 (0xA9F8630C69E50A99988211D286C32D6B)
Полное имя : D:DVDАдвокат_1990-SATRip-AVCАдвокат-1.mkv
Формат : Matroska
Версия формата : Version 2
Размер файла : 1,17 Гбайт
Продолжительность : 1 ч. 7 м.
Общий поток : 2494 Кбит/сек
Дата кодирования : UTC 2015-04-01 21:16:45
Программа кодирования : mkvmerge v5.8.0 ('No Sleep / Pillow') built on Sep 2 2012 15:37:04
Библиотека кодирования : libebml v1.2.3 + libmatroska v1.3.0
Видео
Идентификатор : 1
Формат : AVC
Формат/Информация : Advanced Video Codec
Профиль формата : High@L4.1
Параметр CABAC формата : Да
Параметр ReFrames формата : 15 кадров
Идентификатор кодека : V_MPEG4/ISO/AVC
Продолжительность : 1 ч. 7 м.
Битрейт : 2300 Кбит/сек
Ширина : 720 пикселей
Высота : 572 пикселя
Соотношение сторон : 4:3
Режим частоты кадров : Постоянный
Частота кадров : 25,000 кадров/сек
Цветовое пространство : YUV
Субдискретизация насыщенности : 4:2:0
Битовая глубина : 8 бит
Тип развёртки : Прогрессивная
Бит/(Пиксели*Кадры) : 0.223
Размер потока : 1,06 Гбайт (90%)
Библиотека кодирования : x264 core 142 r2431 ac76440
Настройки программы : cabac=1 / ref=15 / deblock=1:-2:-2 / analyse=0x3:0x133 / me=umh / subme=10 / psy=1 / psy_rd=1.05:0.15 / mixed_ref=1 / me_range=32 / chroma_me=1 / trellis=2 / 8x8dct=1 / cqm=0 / deadzone=21,11 / fast_pskip=0 / chroma_qp_offset=-3 / threads=12 / lookahead_threads=2 / sliced_threads=0 / nr=0 / decimate=0 / interlaced=0 / bluray_compat=0 / constrained_intra=0 / bframes=7 / b_pyramid=2 / b_adapt=2 / b_bias=0 / direct=3 / weightb=1 / open_gop=0 / weightp=2 / keyint=250 / keyint_min=25 / scenecut=40 / intra_refresh=0 / rc=2pass / mbtree=0 / bitrate=2300 / ratetol=1.0 / qcomp=0.65 / qpmin=0 / qpmax=39 / qpstep=4 / cplxblur=20.0 / qblur=0.5 / ip_ratio=1.40 / pb_ratio=1.30 / aq=1:1.00
Язык : English
Default : Да
Forced : Нет
Основные цвета : BT.601 PAL
Характеристики трансфера : BT.470 System B, BT.470 System G
Коэффициенты матрицы : BT.601
Аудио
Идентификатор : 2
Формат : AC-3
Формат/Информация : Audio Coding 3
Расширение режима : CM (complete main)
Параметр Endianness формата : Big
Идентификатор кодека : A_AC3
Продолжительность : 1 ч. 7 м.
Вид битрейта : Постоянный
Битрейт : 192 Кбит/сек
Каналы : 2 канала
Расположение каналов : Front: L R
Частота : 48,0 КГц
Битовая глубина : 16 бит
Метод сжатия : С потерями
Задержка видео : 15 мс.
Размер потока : 92,2 Мбайт (8%)
Язык : Russian
Default : Да
Forced : Нет

Релиз от:
Автор релиза:



   Похожие торренты   Торрент   Размер 
В этой теме нет новых непрочитанных сообщений. Адвокат [01-03 из 03] (1990) SATRip-AVC

78 | 16

2.67 ГБ

В этой теме нет новых непрочитанных сообщений. Адвокат [09х01-04 из 24] (2017) WEB-DL (1080p) от ExKinoRay

0 | 0

8.2 ГБ

В этой теме нет новых непрочитанных сообщений. Убийство свидетеля (1990) DVDRip

17 | 20

1.37 ГБ

В этой теме нет новых непрочитанных сообщений. Очарованный странник (1990) SATRip-AVC от ExKinoRay

403 | 6

2.34 ГБ

В этой теме нет новых непрочитанных сообщений. Морской волк (1990) SATRip-AVC от ExKinoRay

102 | 15

3.46 ГБ

В этой теме нет новых непрочитанных сообщений. Адвокат 8 [01-24] (2011) SATRip от КинозалSAT

7 | 4

11.72 ГБ

В этой теме нет новых непрочитанных сообщений. Адвокат [07x12] (2011) SATRip

1 | 2

475.98 МБ




Вы не можете начинать темы
Вы не можете отвечать на сообщения
Вы не можете редактировать свои сообщения
Вы не можете удалять свои сообщения
Вы не можете добавлять вложения

Перейти:  
Для Мосгорсуда, Роскомнадзора и рекламодателей: mosgorsud-torrent[собачка]yandex.ru
 Вход
ppkBB3cker v.2 © 2008-2014 @ PPK
[ Time : 0.046s | 15 Queries | GZIP : Off ]

cron