img image001 image001 image001 image001 image001 image001 image001 image001 image001 image001 image001 image001 image001 image001 image001

Planets Sun Sun Sun
Статистика раздачи
Автор: Nickolas3434 | Размер: 19.6 ГБ | Добавлен: 15 сен 2015, 20:08
Раздают: 85    Качают: 104
Скачать торрент
Скачать торрент
Описание торрента

СообщениеДобавлено: 15 сен 2015, 20:08 


Информация о фильме
Название: Настоящая кровь
Оригинальное название: True Blood
Год выхода: 2008
Жанр: Фэнтези, драма, вампиры
Режиссер: Майкл Леманн, Скотт Уинант, Даниэль Минахан, Лесли Линка Глаттер
В ролях: Анна Пакуин, Стивен Мойер, Сэм Траммелл, Райан Квантен, Рутина Уэсли, Кристофер Бауэр, Нелсан Эллис, Джим Пэррак, Кэрри Престон, Александр Скарсгард
О фильме:
События разворачиваются в небольшом городке в пригороде Нового Орлеана. С тех пор, как японцы изобрели синтетическую кровь «True Blood», у вампиров отпала необходимость убивать простых смертных. Два года назад вампиры покинули свои гробы и официально заявили о своих правах. Но как водится, не все люди оказались готовы к этому, и не все вампиры были рады отказаться от привычного лакомства. Сьюки Стэкхауз — обычная официантка из пригородного кафе, наделенная способностью читать мысли окружающих, знакомится с «хорошим» вампиром Биллом Комтоном. И сразу приобретает много врагов из «плохих парней».

Страна: США
Студия: Your Face Goes Here Entertainment, Home Box Office (HBO)
Продолжительность: 80 x ~ 00:55:00
Перевод: Профессиональный (многоголосый, закадровый) [FoxLife, 1-2 Сезоны], Профессиональный (двухголосый, закадровый) [Кубик в Кубе, 3-7 Сезоны]
Файл
Формат: MP4
Качество: HDRip, HDTVRip, WEB-DLRip | КПК
Видео: MPEG-4 AVC (x264), 640x360, ~500 kbps, 23.976 fps
Аудио: AAC LC, 48.0 KHz, 2 ch, 128 Kbps
Субтитры: Нет
Семпл

Complete name : E:KinoNastojashhaja.Krov'.AVC.KPK.GeneralfilmNastojashhaja.Krov'.S02.2009.AVC.HDRip.KPK.FL.GeneralfilmNastojashhaja.Krov'.s02e04.2009.AVC.HDRip.KPK.FL.Generalfilm.mp4
Format : MPEG-4
Codec ID : M4V
File size : 250 MiB
Duration : 55mn 10s
Overall bit rate mode : Variable
Overall bit rate : 635 Kbps
Writing application : Lavf53.19.0
Video
ID : 1
Format : AVC
Format/Info : Advanced Video Codec
Format profile : High@L4.1
Format settings, CABAC : Yes
Format settings, ReFrames : 8 frames
Codec ID : avc1
Codec ID/Info : Advanced Video Coding
Duration : 55mn 10s
Source duration : 26mn 32s
Bit rate : 500 Kbps
Width : 640 pixels
Height : 360 pixels
Display aspect ratio : 16:9
Frame rate mode : Constant
Frame rate : 23.976 fps
Color space : YUV
Chroma subsampling : 4:2:0
Bit depth : 8 bits
Scan type : Progressive
Bits/(Pixel*Frame) : 0.091
Stream size : 198 MiB (79%)
Source stream size : 198 MiB (79%)
Writing library : x264 core 130 r2273 b3065e6
Encoding settings : cabac=1 / ref=8 / deblock=1:-2:-2 / analyse=0x3:0x133 / me=umh / subme=10 / psy=1 / psy_rd=1.00:0.00 / mixed_ref=1 / me_range=24 / chroma_me=1 / trellis=2 / 8x8dct=1 / cqm=0 / deadzone=21,11 / fast_pskip=1 / chroma_qp_offset=-2 / threads=3 / lookahead_threads=1 / sliced_threads=0 / nr=0 / decimate=0 / interlaced=0 / bluray_compat=0 / constrained_intra=0 / bframes=8 / b_pyramid=2 / b_adapt=2 / b_bias=0 / direct=3 / weightb=1 / open_gop=0 / weightp=2 / keyint=240 / keyint_min=121 / scenecut=40 / intra_refresh=0 / rc_lookahead=40 / rc=2pass / mbtree=1 / bitrate=500 / ratetol=1.0 / qcomp=0.60 / qpmin=0 / qpmax=69 / qpstep=4 / cplxblur=20.0 / qblur=0.5 / ip_ratio=1.40 / aq=1:1.00
mdhd_Duration : 3310604
Audio
ID : 2
Format : AAC
Format/Info : Advanced Audio Codec
Format profile : LC
Codec ID : 40
Duration : 55mn 9s
Bit rate mode : Variable
Bit rate : 128 Kbps
Channel(s) : 2 channels
Channel positions : Front: L R
Sampling rate : 48.0 KHz
Compression mode : Lossy
Stream size : 50.5 MiB (20%)

Релиз от:



   Похожие торренты   Торрент   Размер 
В этой теме нет новых непрочитанных сообщений. Настоящая кровь / True Blood [S01-07] (2008-2014) HDRip, HDTVRip, WEB-DLRip | P

193 | 261

57.46 ГБ

В этой теме нет новых непрочитанных сообщений. Настоящая кровь / True Blood [S01-06] (2008-2013) HDRip, HDTVRip, WEB-DLRip | P

22 | 48

49.93 ГБ

В этой теме нет новых непрочитанных сообщений. Настоящая Кровь - Прощальное Шоу / True Blood. A farewell to Bon Temps (2014) HDTVRip от Generalfilm

103 | 14

350.18 МБ

В этой теме нет новых непрочитанных сообщений. Настоящая кровь / True Blood [S01] (2008) HDTVRip | 1001cinema

7 | 8

7.27 ГБ

В этой теме нет новых непрочитанных сообщений. Настоящая кровь / True Blood [07х01-06 из 10] (2014) WEB-DLRip | Кубик в Кубе

108 | 264

4.41 ГБ

В этой теме нет новых непрочитанных сообщений. Настоящая кровь / True Blood [07х01-03 из 10] (2014) WEB-DLRip | Кубик в Кубе

111 | 226

2.13 ГБ

В этой теме нет новых непрочитанных сообщений. Настоящая кровь / True Blood [07х01-07 из 10] (2014) WEB-DLRip | Кубик в Кубе

182 | 349

5.18 ГБ




Вы не можете начинать темы
Вы не можете отвечать на сообщения
Вы не можете редактировать свои сообщения
Вы не можете удалять свои сообщения
Вы не можете добавлять вложения

Перейти:  
Для Мосгорсуда, Роскомнадзора и рекламодателей: mosgorsud-torrent[собачка]yandex.ru
Настройки
ppkBB3cker v.2 © 2008-2014 @ PPK
[ Time : 0.026s | 15 Queries | GZIP : On ]
CGP [Extreme] output time : 0.00075s | 0 Queries | GZIP : On

Торрент трекер RUTOR.IN, Не можете зайти на rutor.org? Какой новый адрес рутор? Какое зеркало рутор? Не работает rutor.org и зеркала? Тогда наш торрент специально для вас. Rutor.in неофициальное зеркало rutor. В случае если у Вас заблокирован rutor или вдруг Вы не можете на него зайти, то Вы без труда сможете скачать бесплатно и без рекламы последние новинки кино, игр, сериалов и прочего у нас, на Rutor.in. Не нужно использовать прокси, чтобы зайти на рутор, достаточно воспользоваться нашим ресурсом. Все новые фильмы, игры, сериалы, книги и музыка за 2013 и 2014 годы через торрент бесплатно. Скачивайте фильмы в хорошем качестве, игры для пк, xbox, playstation без регистрации. У нас вы найдете новые Зарубежные сериалы и Русские сериалы 2013, 2014, 2015 годов. Оставайтесь с нами, качайте любимые фильмы, игры, сериалы, книги и музыку.