img image001 image001 image001 image001 image001 image001 image001 image001 image001 image001 image001 image001 image001 image001 image001

Planets Sun Sun Sun
Статистика раздачи
Автор: Nickolas3434 | Размер: 673.61 МБ | Добавлен: 18 сен 2015
Раздают: 130    Качают: 13
Скачать торрент
Скачать торрент
Описание торрента

СообщениеДобавлено: 18 сен 2015 


Информация о фильме
Название: Чужая милая
Год выхода: 2015
Режиссер: Дмитрий Фикс
В ролях: Анастасия Заворотнюк, Александр Бухаров, Анна Уколова, Олеся Железняк, Олег Акулич, Егор Клеймёнов, Сергей Зарков
О фильме:
Наталья работает поваром в школьной столовой. Работа ей нравится, а главное - за безобразником сыном можно присматривать. Но Наталью обвиняют в воровстве, которого она не совершала, и увольняют с работы. Чтобы как-то прожить, она по совету подруги решает сдавать одну комнату...
Страна: Россия
Продолжительность: ~ 00:42:00
Перевод: Не требуется
Файл
Кодек: XviD
Качество: SATRip
Видео: 720x400 (1.80:1), 25 fps, XviD build 50 ~1800 kbps avg, 0.25 bit/pixel
Звук: 48 kHz, MPEG Layer 3, 2 ch, ~128.00 kbps avg

Общее
Полное имя : D:ФильмыChuzhaja.milaja.04.SATRip.avi
Формат : AVI
Формат/Информация : Audio Video Interleave
Размер файла : 674 Мбайт
Продолжительность : 47 м.
Общий поток : 2002 Кбит/сек
Программа кодирования : VirtualDubMod 1.5.10.3 | www.virtualdub-fr.org || (build 2550/release)
Библиотека кодирования : VirtualDubMod build 2550/release
Видео
Идентификатор : 0
Формат : MPEG-4 Visual
Профиль формата : Advanced Simple@L5
Параметр BVOP формата : 2
Параметр QPel формата : Нет
Параметр GMC формата : Без точки перехода
Параметр матрицы формата : Default (H.263)
Идентификатор кодека : XVID
Идентификатор кодека/Подсказка : XviD
Продолжительность : 47 м.
Битрейт : 1800 Кбит/сек
Ширина : 720 пикселей
Высота : 400 пикселей
Соотношение сторон : 16:9
Частота кадров : 25,000 кадров/сек
Цветовое пространство : YUV
Субдискретизация насыщенности : 4:2:0
Битовая глубина : 8 бит
Тип развёртки : Прогрессивная
Метод сжатия : С потерями
Бит/(Пиксели*Кадры) : 0.250
Размер потока : 606 Мбайт (90%)
Библиотека кодирования : XviD 1.2.1 (UTC 2008-12-04)
Аудио
Идентификатор : 1
Формат : AC-3
Формат/Информация : Audio Coding 3
Расширение режима : CM (complete main)
Параметр Endianness формата : Big
Идентификатор кодека : 2000
Продолжительность : 47 м.
Вид битрейта : Постоянный
Битрейт : 192 Кбит/сек
Каналы : 2 канала
Расположение каналов : Front: L R
Частота : 48,0 КГц
Метод сжатия : С потерями
Размер потока : 64,6 Мбайт (10%)
Выравнивание : Разделение по промежуткам
Продолжительность промежутка : 40 мс. (1,00 видеокадр)
Время предзагрузки промежутка : 500 мс.

Релиз от:



   Похожие торренты   Торрент   Размер 
В этой теме нет новых непрочитанных сообщений. Чужая милая [02 из 04] (2015) SATRip

32 | 21

584.41 МБ

В этой теме нет новых непрочитанных сообщений. Чужая милая [01 из 04] (2015) SATRip

91 | 4

582.54 МБ

В этой теме нет новых непрочитанных сообщений. Чужая милая [03 из 04] (2015) SATRip

69 | 21

599.6 МБ

В этой теме нет новых непрочитанных сообщений. Чужая милая [01-02 из 04] (2015) WEB-DL от Files-x

147 | 13

1.07 ГБ

В этой теме нет новых непрочитанных сообщений. Чужая милая [01-02 из 04] (2015) WEB-DL от Files-x

1876 | 283

2.15 ГБ

В этой теме нет новых непрочитанных сообщений. Чужая милая [01-02 из 04] (2015) WEB-DLRip-AVC от Files-x

268 | 44

1.96 ГБ

В этой теме нет новых непрочитанных сообщений. Чужая милая [01-02 из 04] (2015) WEB-DLRip-AVC от Files-x

3 | 0

980.3 МБ




Вы не можете начинать темы
Вы не можете отвечать на сообщения
Вы не можете редактировать свои сообщения
Вы не можете удалять свои сообщения
Вы не можете добавлять вложения

Перейти:  
Для Мосгорсуда, Роскомнадзора и рекламодателей: mosgorsud-torrent[собачка]yandex.ru
 Вход
ppkBB3cker v.2 © 2008-2014 @ PPK
[ Time : 0.034s | 15 Queries | GZIP : Off ]

cron