img image001 image001 image001 image001 image001 image001 image001 image001 image001 image001 image001 image001 image001 image001 image001

Planets Sun Sun Sun
Статистика раздачи
Автор: Nickolas3434 | Размер: 28.11 ГБ | Добавлен: 23 сен 2015
Раздают: 62    Качают: 32
Скачать торрент
Скачать торрент
Описание торрента

СообщениеДобавлено: 23 сен 2015 


Информация о фильме
Название: Таинственный остров
Оригинальное название: Mysterious Island
Год выхода: 1995
Жанр: фантастика, приключения
Режиссер: Крис Бэйли, Уильям Фрюит, Питер Шарп
В ролях: Алан Скарф, Колетт Стивенсон, Стивен Ловатт, Гордон Майкл Вулветт,
Джон Бах, С. Дэвид Джонсон, Энди Маршалл, Фрэнк Уиттен, Кевин Уилсон, Глайнис Параха
Описание: Экранизация книги Жюль Верна Таинственный Остров.
США 1865 год, война между Севером и Югом. Командир отряда северян капитан Сайрус Хардинг, попав в засаду, оказывается в плену у южан. Вместе с военным корреспондентом Гидеоном Спилетом, семьей Пенкрофтов и чернокожим солдатом Нэбом Брауном капитан Хардинг бежит из плена на воздушном шаре. Куда унесет беглецов разыгравшаяся буря?..

Страна: Канада, Новая Зеландия
Продолжительность: 43х ~ 22 мин
Перевод: Профессиональный (многоголосый закадровый)
Доп. информация: запись с 8 канала, на тв серии раздели пополам, получилось 44 серии.
последней 44 серии в раздачи нет!
Файл
Формат: TS
Качество: DVB
Видео: 720x576@768x576, 4:3, MPEG2, 25 fps, 4301 kbps
Аудио: MP2, 192 Кбит/сек, 2 канала, 48,0 КГц


Общее
Идентификатор : 1 (0x1)
Полное имя : C:mys isl1x01 - genesis.ts
Формат : MPEG-TS
Размер файла : 778 Мбайт
Продолжительность : 23 м.
Режим общего битрейта : Переменный
Общий поток : 4728 Кбит/сек
Видео
Идентификатор : 301 (0x12D)
Идентификатор меню : 1 (0x1)
Формат : MPEG Video
Версия формата : Version 2
Профиль формата : Main@Main
Параметр BVOP формата : Да
Параметр матрицы формата : Выборочная
Параметр GOP формата : Variable
Идентификатор кодека : 2
Продолжительность : 23 м.
Вид битрейта : Переменный
Битрейт : 4301 Кбит/сек
Максимальный битрейт : 15,0 Мбит/сек
Ширина : 720 пикселей
Высота : 576 пикселей
Соотношение сторон : 4:3
Частота кадров : 25,000 кадров/сек
Стандарт вещания : PAL
Цветовое пространство : YUV
Субдискретизация насыщенности : 4:2:0
Битовая глубина : 8 бит
Метод сжатия : С потерями
Бит/(Пиксели*Кадры) : 0.415
Временной код первого кадра : 00:00:00:00
Оригинал временного кода : Group of pictures header
Размер потока : 708 Мбайт (91%)
Аудио
Идентификатор : 401 (0x191)
Идентификатор меню : 1 (0x1)
Формат : MPEG Audio
Версия формата : Version 1
Профиль формата : Layer 2
Идентификатор кодека : 3
Продолжительность : 23 м.
Вид битрейта : Постоянный
Битрейт : 192 Кбит/сек
Каналы : 2 канала
Частота : 48,0 КГц
Метод сжатия : С потерями
Задержка видео : 8 мс.
Размер потока : 31,6 Мбайт (4%)
Язык : Russian



   Похожие торренты   Торрент   Размер 
В этой теме нет новых непрочитанных сообщений. Таинственный остров / Остров приключений / Mysterious Island (1961) BDRip от HQCLUB

14 | 8

1.45 ГБ

В этой теме нет новых непрочитанных сообщений. Таинственный остров / Mysterious Island (2005) DVDRip от AndrewWhite

78 | 17

1.38 ГБ

В этой теме нет новых непрочитанных сообщений. Возвращение на таинственный остров / Return to Mysterious Island (2008) РС

200 | 29

992.4 МБ

В этой теме нет новых непрочитанных сообщений. Возвращение на Таинственный остров 2 / Return to Mysterious Island 2 (2009) PC

1465 | 68

4.11 ГБ

В этой теме нет новых непрочитанных сообщений. Таинственный остров / Mysterious Island (2011) DVDRip | den904

4 | 2

1.46 ГБ

В этой теме нет новых непрочитанных сообщений. Путешествие 2: Таинственный остров / Journey 2: The Mysterious Island (2012) Blu-ray

3 | 4

25.54 ГБ

В этой теме нет новых непрочитанных сообщений. Путешествие 2: Таинственный остров / Journey 2: The Mysterious Island (2012) HDRip-AVC

13 | 4

745.12 МБ




Вы не можете начинать темы
Вы не можете отвечать на сообщения
Вы не можете редактировать свои сообщения
Вы не можете удалять свои сообщения
Вы не можете добавлять вложения

Перейти:  
Для Мосгорсуда, Роскомнадзора и рекламодателей: mosgorsud-torrent[собачка]yandex.ru
 Вход
ppkBB3cker v.2 © 2008-2014 @ PPK
[ Time : 0.054s | 17 Queries | GZIP : Off ]
CGP output time : 0.033s | 5 Queries | GZIP : Off

Торрент трекер RUTOR.IN, Не можете зайти на rutor.org? Какой новый адрес рутор? Какое зеркало рутор? Не работает rutor.org и зеркала? Тогда наш торрент специально для вас. Rutor.in неофициальное зеркало rutor. В случае если у Вас заблокирован rutor или вдруг Вы не можете на него зайти, то Вы без труда сможете скачать бесплатно и без рекламы последние новинки кино, игр, сериалов и прочего у нас, на Rutor.in. Не нужно использовать прокси, чтобы зайти на рутор, достаточно воспользоваться нашим ресурсом. Все новые фильмы, игры, сериалы, книги и музыка за 2013 и 2014 годы через торрент бесплатно. Скачивайте фильмы в хорошем качестве, игры для пк, xbox, playstation без регистрации. У нас вы найдете новые Зарубежные сериалы и Русские сериалы 2013, 2014, 2015 годов. Оставайтесь с нами, качайте любимые фильмы, игры, сериалы, книги и музыку.