img image001 image001 image001 image001 image001 image001 image001 image001 image001 image001 image001 image001 image001 image001 image001

Planets Sun Sun Sun
Статистика раздачи
Автор: Nickolas3434 | Размер: 8.72 ГБ | Добавлен: 24 сен 2015
Раздают: 138    Качают: 72
Скачать торрент
Скачать торрент
Описание торрента

СообщениеДобавлено: 24 сен 2015 


Информация о Сериале
Название: Полинезийские приключения / Легенды южных морей
Оригинальное название: Tales of the South Seas
Год выхода: 1998
Жанр: Приключения
Режиссер: Скотт Хартфорд-Дэвис, Йен Бэрри, Дональд Кромби
В ролях: Уильям Сноу, Рене Науфаху, Рэйчел Блэйкли, Роуэна Кинг, Марк Ли, Кимберли Джозеф, Адриан Райт, Чути Тью, Робин Лоу
Описание: Яркий, красочный сериал по мотивам романа Джека Лондона. Добро пожаловать на борт «Раттлера» — шхуны, управляемой бесстрашным Дэвидом Грифом. Немного бизнесмен, немного обманщик, Гриф никогда не бежит от опасности. Он ищет приключений и прибывает на экзотические и опасные острова Океании, где контрабандисты, гадалки, охотники за удачей, знахари, каперы, попрошайки, нищие — все находятся вместе. Там не существует правил, все действуют, как им заблагорассудится.

Страна: Австралия, Франция
Продолжительность: 22х ~ 46 мин
Перевод: Профессиональный (многоголосый, закадровый) - Лайко
Файл
Формат: AVI
Качество: SATRip
Видео: 640x480, 4:3, XVID, ~1000 Kbps, 25.000 fps
Аудио: 128 Kbps, MP3, 2 channels, 48.0 KHz

Complete name : Tales of the South Seas 01.avi
Format : AVI
Format/Info : Audio Video Interleave
File size : 406 MiB
Duration : 47mn 39s
Overall bit rate : 1 191 Kbps
Writing library : VirtualDub build 32817/release
Video
Format : MPEG-4 Visual
Format profile : Streaming Video@L1
Format settings, BVOP : Yes
Format settings, QPel : No
Format settings, GMC : No warppoints
Format settings, Matrix : Default (H.263)
Muxing mode : Packed bitstream
Codec ID : XVID
Codec ID/Hint : XviD
Duration : 47mn 39s
Bit rate : 1 053 Kbps
Width : 640 pixels
Height : 480 pixels
Display aspect ratio : 4/3
Frame rate : 25.000 fps
Resolution : 24 bits
Colorimetry : 4:2:0
Scan type : Progressive
Bits/(Pixel*Frame) : 0.137
Stream size : 359 MiB (88%)
Writing library : XviD 1.2.1 (UTC 2008-12-04)
Audio
Format : MPEG Audio
Format version : Version 1
Format profile : Layer 3
Codec ID : 55
Codec ID/Hint : MP3
Duration : 47mn 39s
Bit rate mode : Constant
Bit rate : 128 Kbps
Channel(s) : 2 channels
Sampling rate : 48.0 KHz
Resolution : 16 bits
Stream size : 43.6 MiB (11%)
Alignment : Split accross interleaves
Interleave, duration : 40 ms (1.00 video frame)
Interleave, preload duration : 500 ms



   Похожие торренты   Торрент   Размер 
В этой теме нет новых непрочитанных сообщений. Южные моря: Атолл Бикини и Маршалловы острова / The South Seas: Bikini Atoll & Marshall Islands (2012) BDRip 1080p | 3D-Video | halfOU

310 | 76

11.74 ГБ

В этой теме нет новых непрочитанных сообщений. Приключения Синбада / Adventures of Sinbad [S01-02] (1996-1998) SATRip

20 | 9

17.03 ГБ

В этой теме нет новых непрочитанных сообщений. Южный Парк / South Park [S2] (1998) DVDRip

353 | 46

4.38 ГБ

В этой теме нет новых непрочитанных сообщений. Кентерберийские рассказы / The Canterbury tales / М. Ф. для взрослых (1998-2000) DVDRip

44 | 5

1.49 ГБ

В этой теме нет новых непрочитанных сообщений. Сборник мультфильмов : Шекспир: трагедии и комедии / Shakespeare: The Animated Tales (1998-2000) DVDRip

0 | 6

2.05 ГБ

В этой теме нет новых непрочитанных сообщений. UFO's: Приключения Инопланетянина (1998) PC

17 | 5

326.35 МБ

В этой теме нет новых непрочитанных сообщений. UFO's: Приключения Инопланетянина (1998) PC | RePack

4 | 3

156.96 МБ




Вы не можете начинать темы
Вы не можете отвечать на сообщения
Вы не можете редактировать свои сообщения
Вы не можете удалять свои сообщения
Вы не можете добавлять вложения

Перейти:  
Для Мосгорсуда, Роскомнадзора и рекламодателей: mosgorsud-torrent[собачка]yandex.ru
 Вход
ppkBB3cker v.2 © 2008-2014 @ PPK
[ Time : 0.030s | 14 Queries | GZIP : Off ]

Торрент трекер RUTOR.IN, Не можете зайти на rutor.org? Какой новый адрес рутор? Какое зеркало рутор? Не работает rutor.org и зеркала? Тогда наш торрент специально для вас. Rutor.in неофициальное зеркало rutor. В случае если у Вас заблокирован rutor или вдруг Вы не можете на него зайти, то Вы без труда сможете скачать бесплатно и без рекламы последние новинки кино, игр, сериалов и прочего у нас, на Rutor.in. Не нужно использовать прокси, чтобы зайти на рутор, достаточно воспользоваться нашим ресурсом. Все новые фильмы, игры, сериалы, книги и музыка за 2013 и 2014 годы через торрент бесплатно. Скачивайте фильмы в хорошем качестве, игры для пк, xbox, playstation без регистрации. У нас вы найдете новые Зарубежные сериалы и Русские сериалы 2013, 2014, 2015 годов. Оставайтесь с нами, качайте любимые фильмы, игры, сериалы, книги и музыку.