img image001 image001 image001 image001 image001 image001 image001 image001 image001 image001 image001 image001 image001 image001 image001

Planets Sun Sun Sun
Статистика раздачи
Автор: Nickolas3434 | Размер: 5.18 ГБ | Добавлен: 24 сен 2015
Раздают: 21    Качают: 7
Скачать торрент
Скачать торрент
Описание торрента

СообщениеДобавлено: 24 сен 2015 

«Небесная справедливость в действии»

Год выпуска: 2015
Производство: США / Kripke Enterprises, Supernatural Films, Warner Bros. Television, Wonderland Sound and Vision
Жанр: Ужасы, фэнтези, триллер, драма, детектив
Режиссеры: Филип Сгриккиа, Джеймс Л. Конуэй, Дженсен Эклс
Продюсеры: Филип Сгриккиа, Роберт Сингер, Тодд Филип Аронье
Актеры: Джаред Падалеки, Дженсен Эклс, Джим Бивер, Миша Коллинз, Джеффри Дин Морган, Женевьев Падалеки, Марк Шеппард, Синди Сэмпсон, Саманта Феррис, Митч Пилледжи
Описание фильма:
Сериал рассказывает о приключениях братьев Сэма и Дина Винчестеров, которые путешествуют по Соединённым Штатам на чёрном автомобиле Chevrolet Impala 1967 года, расследуют паранормальные явления, многие из которых основаны на американских городских легендах и фольклоре, и сражаются с порождениями зла, такими как демоны и призраки.
Перевод: Дублированный [Кравец - Рекордз]
Субтитры: Отсутствуют


Продолжительность: ~00:40:00 серия
Качество видео: DVB
Видео: MPEG-TS, 720x576@768x576 (PAL 4:3), ~1372 Кбит/сек
Аудио: MP3 2.0, 128 Кбит/сек
Общее
Идентификатор : 62521 (0xF439)
Полное имя : F:ВидеоSupernatural [Season 10] (2015) DVB12.ts
Формат : MPEG-TS
Размер файла : 423 Мбайт
Продолжительность : 36 м.
Режим общего битрейта : Переменный
Общий поток : 1605 Кбит/сек
Видео
Идентификатор : 69 (0x45)
Идентификатор меню : 1 (0x1)
Формат : AVC
Формат/Информация : Advanced Video Codec
Профиль формата : High@L3
Параметр CABAC формата : Да
Параметр ReFrames формата : 4 кадра
Идентификатор кодека : 27
Продолжительность : 36 м.
Битрейт : 1372 Кбит/сек
Ширина : 720 пикселей
Высота : 576 пикселей
Соотношение сторон : 4:3
Частота кадров : 25,000 кадров/сек
Стандарт вещания : PAL
Цветовое пространство : YUV
Субдискретизация насыщенности : 4:2:0
Битовая глубина : 8 бит
Тип развёртки : Прогрессивная
Бит/(Пиксели*Кадры) : 0.132
Размер потока : 368 Мбайт (87%)
Библиотека кодирования : x264 core 124
Настройки программы : cabac=1 / ref=1 / deblock=1:-1:-1 / analyse=0x3:0x13 / me=dia / subme=1 / psy=1 / psy_rd=1.00:0.15 / mixed_ref=0 / me_range=16 / chroma_me=1 / trellis=0 / 8x8dct=1 / cqm=0 / deadzone=21,11 / fast_pskip=1 / chroma_qp_offset=0 / threads=8 / sliced_threads=0 / nr=0 / decimate=1 / interlaced=0 / bluray_compat=0 / constrained_intra=0 / bframes=3 / b_pyramid=2 / b_adapt=1 / b_bias=0 / direct=1 / weightb=1 / open_gop=0 / weightp=1 / keyint=60 / keyint_min=6 / scenecut=40 / intra_refresh=0 / rc_lookahead=0 / rc=cbr / mbtree=0 / bitrate=1372 / ratetol=1.0 / qcomp=0.60 / qpmin=10 / qpmax=51 / qpstep=4 / vbv_maxrate=1372 / vbv_bufsize=1500 / nal_hrd=none / ip_ratio=1.40 / pb_ratio=1.30 / aq=1:1.00
Аудио
Идентификатор : 68 (0x44)
Идентификатор меню : 1 (0x1)
Формат : MPEG Audio
Версия формата : Version 1
Профиль формата : Layer 3
Режим : Joint stereo
Расширение режима : MS Stereo
Идентификатор кодека : 3
Продолжительность : 36 м.
Вид битрейта : Постоянный
Битрейт : 128 Кбит/сек
Каналы : 2 канала
Частота : 44,1 КГц
Метод сжатия : С потерями
Задержка видео : -15 мс.
Размер потока : 33,8 Мбайт (8%)
Язык : Russian
Видео взято с архива торрент-тв.
Когда раздача ведётся путём добавления новых серий, при каждом добавлении создётся новый торрент. Чтобы начать докачку новой серии, пользователям необходимо сделать следующее:
(1) остановить скачивание,
(2) удалить старый торрент у себя из клиента (старые серии удалять не надо),
(3) скачать новый торрент и запустить его у себя в клиенте вместо старого, при этом указать клиенту путь в старую папку, куда и должно происходить скачивание новых серий.
Ваш клиент при этом должен произвести хеширование (проверку) старой папки (если не производит сам - помогите ему сделать это), и будет докачивать только те серии, которых у вас ещё нет. Старые серии при этом не удаляются, а продолжают раздаваться!
Eсли вы уже удалили старые серии, то предотвратить повторную закачку старых серий можно, отжав галочку в соответсвующих местах при запуске нового торрента. По возможности, желательно не удалять старые серии как можно дольше, чтобы релизёр не столько продолжал раздавать старые серии, а смог сконцентрироваться на новых.
01. Black / Черное
02. Reichenbach / Рейхенбах
03. Soul Survivor / Исцелённая душа
04. Paper Moon / Бумажная луна
05. Fan Fiction / Фанфики
06. Ask Jeeves / Спросите у Дживса
07. Girls, Girls, Girls / Ох уж эти девчонки
08. Hibbing 911 / Полиция Хиббинга спешит на помощь
09. The Things We Left Behind / Что осталось после нас
10. The Hunter Games / Охотничьи игры
11. There's No Place Like Home / В гостях хорошо, а дома лучше
12. About a Boy / Заметка про мальчика

Скриншоты:



   Похожие торренты   Торрент   Размер 
В этой теме нет новых непрочитанных сообщений. Сверхъестественное / Supernatural [10x01-12 из 23] (2015) DVB | Кравец

27 | 29

6.9 ГБ

В этой теме нет новых непрочитанных сообщений. Сверхъестественное / Supernatural [S10] (2015) DVB | Кравец

107 | 63

9.82 ГБ

В этой теме нет новых непрочитанных сообщений. Сверхъестественное / Supernatural [08-10x01-60 из 69] (2012-2015 ) WEB-DLRip 720p l LostFilm

13 | 43

63.62 ГБ

В этой теме нет новых непрочитанных сообщений. Сверхъестественное / Supernatural [S10] (2015) WEB-DLRip | Кравец

107 | 128

14.35 ГБ

В этой теме нет новых непрочитанных сообщений. Сверхъестественное / Supernatural [S01-10] (2005-2015) BDRemux 1080р | Рен-ТВ, Кравец, NovaFilm, LostFilm

60 | 173

1.17 ТБ

В этой теме нет новых непрочитанных сообщений. Сверхъестественное / Supernatural [S01-10] (2005-2015) BDRemux 1080р | Рен-ТВ, Кравец, NovaFilm, LostFilm

9 | 72

1.16 ТБ

В этой теме нет новых непрочитанных сообщений. Сверхъестественное / Supernatural [10x01-10 из 23] (2014) HDTVRip | Sub

1 | 6

3.4 ГБ




Вы не можете начинать темы
Вы не можете отвечать на сообщения
Вы не можете редактировать свои сообщения
Вы не можете удалять свои сообщения
Вы не можете добавлять вложения

Перейти:  
Для Мосгорсуда, Роскомнадзора и рекламодателей: mosgorsud-torrent[собачка]yandex.ru
 Вход
ppkBB3cker v.2 © 2008-2014 @ PPK
[ Time : 1.921s | 14 Queries | GZIP : Off ]

Торрент трекер RUTOR.IN, Не можете зайти на rutor.org? Какой новый адрес рутор? Какое зеркало рутор? Не работает rutor.org и зеркала? Тогда наш торрент специально для вас. Rutor.in неофициальное зеркало rutor. В случае если у Вас заблокирован rutor или вдруг Вы не можете на него зайти, то Вы без труда сможете скачать бесплатно и без рекламы последние новинки кино, игр, сериалов и прочего у нас, на Rutor.in. Не нужно использовать прокси, чтобы зайти на рутор, достаточно воспользоваться нашим ресурсом. Все новые фильмы, игры, сериалы, книги и музыка за 2013 и 2014 годы через торрент бесплатно. Скачивайте фильмы в хорошем качестве, игры для пк, xbox, playstation без регистрации. У нас вы найдете новые Зарубежные сериалы и Русские сериалы 2013, 2014, 2015 годов. Оставайтесь с нами, качайте любимые фильмы, игры, сериалы, книги и музыку.