img image001 image001 image001 image001 image001 image001 image001 image001 image001 image001 image001 image001 image001 image001 image001

Planets Sun Sun Sun
Статистика раздачи
Автор: Nickolas3434 | Размер: 4.36 ГБ | Добавлен: 27 сен 2015
Раздают: 185    Качают: 23
Скачать торрент
Скачать торрент
Описание торрента

СообщениеДобавлено: 27 сен 2015 


Год выпуска: 2012
Производство: Россия / Star Media
Жанр: драма, биография
Режиссер: Вальдемар Кшистек, Александр Тименко
Актеры: Йоанна Моро, Мария Порошина, Марат Башаров, Екатерина Васильева, Константин Милованов, Томмазо Раменги, Анна Кирина, Мария Беккер, Игорь Сергеев, Даромир Данил Горденко
Описание фильма: История о певице, которая на пике своей славы попала в автокатастрофу и оказалась прикованной к больничной койке. 12 дней восходящая звезда Анна Герман не приходила в сознание. В те дни ей пришлось снова пережить трагические события своего детства — арест отца, обвиненного в шпионаже, скитания их осиротелой семьи по Средней Азии, смерть маленького брата, войну и побег в Польшу в надежде скрыться от преследователей из НКВД… Первую любовь и первый успех…
Никто из врачей не верил, что она выживет. А если даже это случится, ей пророчили полную неподвижность до конца жизни. Однако, после 12 дней комы небо даровало ей шанс начать жизнь заново. И она совершила невозможное, став «белым ангелом» советской эстрады…
Продолжительность: 08:26:52
Качество: HDRip
Видео: XviD, 704 x 400 (16:9), ~ 1100 kbps, 25.000 fps, 0.157 b/px
Аудио: MP3, 2 ch, 128 kbps, 48 000 Hz [оригинальный (Русский)]
Общее
Полное имя : Anna.German.2012.XviD.HDRip.by.GeneralFilmSerija.02.avi
Формат : AVI
Формат/Информация : Audio Video Interleave
Размер файла : 446 Мбайт
Продолжительность : 50 м.
Общий поток : 1245 Кбит/сек
Программа кодирования : VirtualDubMod 1.5.10.3 | www.virtualdub-fr.org || (build 2550/release)
Библиотека кодирования : VirtualDubMod build 2550/release
Видео
Идентификатор : 0
Формат : MPEG-4 Visual
Профиль формата : Advanced Simple@L5
Параметр BVOP формата : 1
Параметр QPel формата : Нет
Параметр GMC формата : Без точки перехода
Параметр матрицы формата : Выборочная
Идентификатор кодека : XVID
Идентификатор кодека/Подсказка : XviD
Продолжительность : 50 м.
Битрейт : 1108 Кбит/сек
Ширина : 704 пикселя
Высота : 400 пикселей
Соотношение сторон : 16:9
Частота кадров : 25,000 кадров/сек
Цветовое пространство : YUV
Субдискретизация насыщенности : 4:2:0
Битовая глубина : 8 бит
Тип развёртки : Прогрессивная
Метод сжатия : С потерями
Бит/(Пиксели*Кадры) : 0.157
Размер потока : 397 Мбайт (89%)
Библиотека кодирования : XviD 73
Аудио
Идентификатор : 1
Формат : MPEG Audio
Версия формата : Version 1
Профиль формата : Layer 3
Идентификатор кодека : 55
Идентификатор кодека/Подсказка : MP3
Продолжительность : 50 м.
Вид битрейта : Постоянный
Битрейт : 128 Кбит/сек
Каналы : 2 канала
Частота : 48,0 КГц
Метод сжатия : С потерями
Размер потока : 45,8 Мбайт (10%)
Выравнивание : Соединение по промежуткам
Продолжительность промежутка : 40 мс. (1,00 видеокадр)
Время предзагрузки промежутка : 504 мс.
Библиотека кодирования : LAME3.99r
Настройки программы : -m s -V 4 -q 0 -lowpass 17 -b 128







Релиз от: &



   Похожие торренты   Торрент   Размер 
В этой теме нет новых непрочитанных сообщений. Анна Герман. Тайна белого ангела [01-10 из 10] (2012) DVB

19 | 7

15.63 ГБ

В этой теме нет новых непрочитанных сообщений. Анна Герман. Тайна белого ангела [01-10 из 10] (2012) DVDRip от Youtracker

11 | 4

8.74 ГБ

В этой теме нет новых непрочитанных сообщений. Анна Герман. Тайна белого ангела [01-10 из 10] (2012) DVDRip-AVC by tahiy

45 | 4

7.64 ГБ

В этой теме нет новых непрочитанных сообщений. Анна Герман. Тайна белого ангела [Серии: 1-10 из 10] (2012) BDRip 720p

31 | 33

17.9 ГБ

В этой теме нет новых непрочитанных сообщений. Анна Герман. Тайна белого ангела [01-10 из 10] (2012) DVD9 от Youtracker | лицензия

3 | 4

15.04 ГБ

В этой теме нет новых непрочитанных сообщений. Анна Герман - Лучшее (2005) MP3

45 | 11

370.1 МБ

В этой теме нет новых непрочитанных сообщений. Анна Герман - Лучшее [2CD] (2011) MP3

196 | 20

507.14 МБ




Вы не можете начинать темы
Вы не можете отвечать на сообщения
Вы не можете редактировать свои сообщения
Вы не можете удалять свои сообщения
Вы не можете добавлять вложения

Перейти:  
Для Мосгорсуда, Роскомнадзора и рекламодателей: mosgorsud-torrent[собачка]yandex.ru
 Вход
ppkBB3cker v.2 © 2008-2014 @ PPK
[ Time : 0.518s | 16 Queries | GZIP : Off ]

Торрент трекер RUTOR.IN, Не можете зайти на rutor.org? Какой новый адрес рутор? Какое зеркало рутор? Не работает rutor.org и зеркала? Тогда наш торрент специально для вас. Rutor.in неофициальное зеркало rutor. В случае если у Вас заблокирован rutor или вдруг Вы не можете на него зайти, то Вы без труда сможете скачать бесплатно и без рекламы последние новинки кино, игр, сериалов и прочего у нас, на Rutor.in. Не нужно использовать прокси, чтобы зайти на рутор, достаточно воспользоваться нашим ресурсом. Все новые фильмы, игры, сериалы, книги и музыка за 2013 и 2014 годы через торрент бесплатно. Скачивайте фильмы в хорошем качестве, игры для пк, xbox, playstation без регистрации. У нас вы найдете новые Зарубежные сериалы и Русские сериалы 2013, 2014, 2015 годов. Оставайтесь с нами, качайте любимые фильмы, игры, сериалы, книги и музыку.
cron