img image001 image001 image001 image001 image001 image001 image001 image001 image001 image001 image001 image001 image001 image001 image001

Planets Sun Sun Sun
Статистика раздачи
Автор: Nickolas3434 | Размер: 8.7 ГБ | Добавлен: 28 сен 2015
Раздают: 186    Качают: 86
Скачать торрент
Скачать торрент
Описание торрента

СообщениеДобавлено: 28 сен 2015 


Информация о фильме
Название: Шаманка
Год выхода: 2015
Жанр: Детектив
Режиссер: Анна Богуславская (II)
В ролях: Инна Коляда, Андрей Казаков, Елена Драпеко, Алексей Винников, Андрей Перович, Юрий Архангельский, Андрей Мокеев, Максим Пономарев, Юлия Гришаева, Геннадий Смирнов, Тимофей Гаврилов, Евгения Латонина, Андрей Павловец, Елена Никонорова, Павел Миронов, Илья Борисов, Варвара Маркевич, Татьяна Ткач (II), Наталья Чичканова, Екатерина Зорина, Варвара Павлова, Алексей Зубков, Олег Попов (II), Марина Даминева, Андрей Анкудинов (II), Валерия Шкирандо, Владислав Резник, Леонид Коронов, Евгения Яхонтова, Ольга Каратеева, Мира Мордасова, Мария Павлова, Вячеслав Гасай, Ольга Павлюкова, Наталья Гусева (IV), Юлия Нижельская, Алла Галицкая, Светлана Бакулина, Татьяна Лукьянчикова.
О фильме:
Преуспевающий кредитный консультант коммерческого банка Марина Белозёрова после гибели жениха Эрика не находит себе места от горя и безысходности. Очнувшись от мрачного забытья, Марина вспоминает свою встречу с начальником отдела по раскрытию умышленных убийств Владимиром Уваровым, с которым она случайно познакомилась в салоне самолёта. В тот раз Белозёрова спасла всех пассажиров и членов экипажа, вовремя заметив, что пилот находится в прединсультном состоянии. Под впечатлением от невероятной прозорливости и острого ума Марины, Уваров сразу же предложил ей работу в полиции, и теперь она решает принять его предложение, чтобы найти убийцу своего возлюбленного...
Страна: Россия
Студия: Студия "Панорама"
Продолжительность: 20 х ~ 00:42:00
Перевод: Не требуется
Файл
Качество: HDTVRip
Видео: XviD, ~ 1270 Кбит/с, 704x400
Аудио: MP3, 2 ch, 128 Кбит/с
Общее
Полное имя : Shamanka.2015.XviD.HDTVRip.by.GeneralFilm\01.seriya.avi
Формат : AVI
Формат/Информация : Audio Video Interleave
Размер файла : 445 Мбайт
Продолжительность : 44 м.
Общий поток : 1407 Кбит/сек
Программа кодирования : VirtualDubMod 1.5.10.3 | www.virtualdub-fr.org || (build 2550/release)
Библиотека кодирования : VirtualDubMod build 2550/release
Видео
Идентификатор : 0
Формат : MPEG-4 Visual
Профиль формата : Advanced Simple@L5
Параметр BVOP формата : 1
Параметр QPel формата : Нет
Параметр GMC формата : Без точки перехода
Параметр матрицы формата : Выборочная
Идентификатор кодека : XVID
Идентификатор кодека/Подсказка : XviD
Продолжительность : 44 м.
Битрейт : 1270 Кбит/сек
Ширина : 704 пикселя
Высота : 400 пикселей
Соотношение сторон : 16:9
Частота кадров : 25,000 кадров/сек
Цветовое пространство : YUV
Субдискретизация насыщенности : 4:2:0
Битовая глубина : 8 бит
Тип развёртки : Прогрессивная
Метод сжатия : С потерями
Бит/(Пиксели*Кадры) : 0.180
Размер потока : 401 Мбайт (90%)
Библиотека кодирования : XviD 73
Аудио
Идентификатор : 1
Формат : MPEG Audio
Версия формата : Version 1
Профиль формата : Layer 3
Идентификатор кодека : 55
Идентификатор кодека/Подсказка : MP3
Продолжительность : 44 м.
Вид битрейта : Постоянный
Битрейт : 128 Кбит/сек
Каналы : 2 канала
Частота : 48,0 КГц
Метод сжатия : С потерями
Размер потока : 40,5 Мбайт (9%)
Выравнивание : Соединение по промежуткам
Продолжительность промежутка : 40 мс. (1,00 видеокадр)
Время предзагрузки промежутка : 504 мс.
Библиотека кодирования : LAME3.99r
Настройки программы : -m s -V 4 -q 0 -lowpass 17 -b 128





Релиз от:



   Похожие торренты   Торрент   Размер 
В этой теме нет новых непрочитанных сообщений. Шаманка [01 из 20] (2015) HDTVRip от Files-x

63 | 36

4.84 ГБ

В этой теме нет новых непрочитанных сообщений. Шаманка [01 из 20] (2015) HDTVRip от Files-x

67 | 20

1.61 ГБ

В этой теме нет новых непрочитанных сообщений. Шаманка [01 из 20] (2015) HDTVRip от Files-x

155 | 110

6.45 ГБ

В этой теме нет новых непрочитанных сообщений. Шаманка [01 из 20] (2015) HDTVRip 720p от MediaClub

37 | 32

13.99 ГБ

В этой теме нет новых непрочитанных сообщений. Шаманка [01 из 20] (2015) HDTVRip 720p от MediaClub

85 | 57

18.65 ГБ

В этой теме нет новых непрочитанных сообщений. Шаманка [01 из 20] (2015) HDTVRip 720p от MediaClub

28 | 6

4.66 ГБ

В этой теме нет новых непрочитанных сообщений. Шаманка / Szamanka (1996) DVDRip от Generalfilm

136 | 67

1.37 ГБ




Вы не можете начинать темы
Вы не можете отвечать на сообщения
Вы не можете редактировать свои сообщения
Вы не можете удалять свои сообщения
Вы не можете добавлять вложения

Перейти:  
Для Мосгорсуда, Роскомнадзора и рекламодателей: mosgorsud-torrent[собачка]yandex.ru
 Вход
ppkBB3cker v.2 © 2008-2014 @ PPK
[ Time : 0.036s | 16 Queries | GZIP : Off ]

Торрент трекер RUTOR.IN, Не можете зайти на rutor.org? Какой новый адрес рутор? Какое зеркало рутор? Не работает rutor.org и зеркала? Тогда наш торрент специально для вас. Rutor.in неофициальное зеркало rutor. В случае если у Вас заблокирован rutor или вдруг Вы не можете на него зайти, то Вы без труда сможете скачать бесплатно и без рекламы последние новинки кино, игр, сериалов и прочего у нас, на Rutor.in. Не нужно использовать прокси, чтобы зайти на рутор, достаточно воспользоваться нашим ресурсом. Все новые фильмы, игры, сериалы, книги и музыка за 2013 и 2014 годы через торрент бесплатно. Скачивайте фильмы в хорошем качестве, игры для пк, xbox, playstation без регистрации. У нас вы найдете новые Зарубежные сериалы и Русские сериалы 2013, 2014, 2015 годов. Оставайтесь с нами, качайте любимые фильмы, игры, сериалы, книги и музыку.
cron