img image001 image001 image001 image001 image001 image001 image001 image001 image001 image001 image001 image001 image001 image001 image001

Planets Sun Sun Sun
Статистика раздачи
Автор: Nickolas3434 | Размер: 7.3 ГБ | Добавлен: 29 сен 2015
Раздают: 1    Качают: 28
Скачать торрент
Скачать торрент
Описание торрента

СообщениеДобавлено: 29 сен 2015 


Информация о фильме
Оригинальное название: Два Антона
Год выхода: 2009-2010
Жанр: Комедия, мюзикл
Режиссер: Леонид Мазор
В ролях: Тимур Батрутдинов, Гавриил Гордеев, Сергей Белоголовцев, Наталья Ноздрина, Павел Акимкин, Роман Богданов, Ирина Жерякова, Ирина Вилкова, Ксения Непотребная, Полина Максимова, Павел Галич, Светлана Антропова, Сергей Гузеев
О фильме:
Антон приехал в Москву, снял квартиру и обнаружил, что в ней живет (извините за тавтологию) еще один Антон. У этих парней так много общего: они недавно в столице, у них есть гитары, оба любят заканчивать диалог фразой «это да», хотя кругом одно сплошное «нет». Работы – нет, денег – нет, из еды только пирожки с капустой. Надо срочно что-то делать, например… петь. Они поют всегда и везде: на свидании с девушкой, убегая от гопников, читая меню в суши-баре или занимаясь уборкой. Наверное, они скоро станут супер-звездами, но сначала надо наскрести денег на бульонный кубик. Супер-оригинальный формат ситкома, в котором смешалось всё: нестандартные житейские ситуации, феерические гэги, драматические переживания и музыка. Главные роли и все музыкальные номера исполняют резиденты Comedy Club Тимур Батрутдинов и Гавр.

Страна: Россия
Студия: MG Media и Comedy Club Production
Продолжительность: 24 х ~ 00:25:00
Перевод: Не требуется
Файл
Кодек: MPEG-4,XVID
Качество: IPTV
Видео: ~ 1800 Кбит/с, 768x432
Звук: AAC, 2 ch, 48.0 KHz
Общее
Полное имя : D:Мультимедиа и документыДва Антона1 серия.avi
Формат : AVI
Формат/Информация : Audio Video Interleave
Размер файла : 315 Мбайт
Продолжительность : 25 м.
Режим общего битрейта : Переменный
Общий поток : 1762 Кбит/сек
Программа кодирования : Lavf56.1.100
Видео
Идентификатор : 0
Формат : MPEG-4 Visual
Профиль формата : Simple@L1
Параметр BVOP формата : Нет
Параметр QPel формата : Нет
Параметр GMC формата : Без точки перехода
Параметр матрицы формата : Default (H.263)
Идентификатор кодека : XVID
Идентификатор кодека/Подсказка : XviD
Продолжительность : 25 м.
Битрейт : 1620 Кбит/сек
Ширина : 768 пикселей
Высота : 432 пикселя
Соотношение сторон : 16:9
Частота кадров : 25,000 кадров/сек
Цветовое пространство : YUV
Субдискретизация насыщенности : 4:2:0
Битовая глубина : 8 бит
Тип развёртки : Прогрессивная
Метод сжатия : С потерями
Бит/(Пиксели*Кадры) : 0.195
Размер потока : 290 Мбайт (92%)
Библиотека кодирования : Lavc56.0.101
Аудио
Идентификатор : 1
Формат : AAC
Формат/Информация : Advanced Audio Codec
Версия формата : Version 2
Профиль формата : LC
Режим смешивания : ADTS
Идентификатор кодека : FF
Продолжительность : 25 м.
Вид битрейта : Переменный
Битрейт : 128 Кбит/сек
Каналы : 2 канала
Расположение каналов : Front: L R
Частота : 48,0 КГц
Метод сжатия : С потерями
Размер потока : 22,9 Мбайт (7%)
Выравнивание : Соединение по промежуткам
Продолжительность промежутка : 21 мс. (0,53 видеокадр)
Время предзагрузки промежутка : 128 мс.



   Похожие торренты   Торрент   Размер 
В этой теме нет новых непрочитанных сообщений. Два Антона [01-24 из 24] (2009-2010) IPTV-AVC

42 | 19

7.28 ГБ

В этой теме нет новых непрочитанных сообщений. Музыка из т/с «Два Антона» (2009-2010) MP3

19 | 1

111.94 МБ

В этой теме нет новых непрочитанных сообщений. Два Антона [01-24 из 24] (2009) SATRip от RiperAM

0 | 3

6.41 ГБ

В этой теме нет новых непрочитанных сообщений. Геймеры: Эра АНТОНа / Avengers: Age of Ultron (2016) HDRip | Смешной перевод

216 | 14

1.45 ГБ

В этой теме нет новых непрочитанных сообщений. Геймеры: Эра АНТОНа / Avengers: Age of Ultron (2016) BDRip 720p | Смешной перевод

117 | 15

4.4 ГБ

В этой теме нет новых непрочитанных сообщений. Может быть, логично: жития и идеи Роберта Антона Уилсона / Maybe Logic: The Lives and Ideas of Robert Anton Wilson (2003) DVDRip

151 | 2

966.06 МБ

В этой теме нет новых непрочитанных сообщений. Бокс. Виталий Кличко vs. Шенон Бриггс (2010) IPTV

0 | 2

1.79 ГБ




Вы не можете начинать темы
Вы не можете отвечать на сообщения
Вы не можете редактировать свои сообщения
Вы не можете удалять свои сообщения
Вы не можете добавлять вложения

Перейти:  
Для Мосгорсуда, Роскомнадзора и рекламодателей: mosgorsud-torrent[собачка]yandex.ru
 Вход
ppkBB3cker v.2 © 2008-2014 @ PPK
[ Time : 0.037s | 14 Queries | GZIP : Off ]

Торрент трекер RUTOR.IN, Не можете зайти на rutor.org? Какой новый адрес рутор? Какое зеркало рутор? Не работает rutor.org и зеркала? Тогда наш торрент специально для вас. Rutor.in неофициальное зеркало rutor. В случае если у Вас заблокирован rutor или вдруг Вы не можете на него зайти, то Вы без труда сможете скачать бесплатно и без рекламы последние новинки кино, игр, сериалов и прочего у нас, на Rutor.in. Не нужно использовать прокси, чтобы зайти на рутор, достаточно воспользоваться нашим ресурсом. Все новые фильмы, игры, сериалы, книги и музыка за 2013 и 2014 годы через торрент бесплатно. Скачивайте фильмы в хорошем качестве, игры для пк, xbox, playstation без регистрации. У нас вы найдете новые Зарубежные сериалы и Русские сериалы 2013, 2014, 2015 годов. Оставайтесь с нами, качайте любимые фильмы, игры, сериалы, книги и музыку.